img image001 image001 image001 image001 image001 image001 image001 image001 image001 image001 image001 image001 image001 image001 image001

Planets Sun Sun Sun
Статистика раздачи
Автор: PriZraK | Размер: 3.5 ГБ | Добавлен: 24 окт 2016
Раздают: 61    Качают: 13
Скачать торрент
Скачать торрент
Описание торрента

СообщениеДобавлено: 24 окт 2016 

Информация о фильме
Название: Звёздная Принцесса и Силы Зла
Другие названия: Стар против Сил Зла (Звезда против Сил Зла)
Оригинальное название: Star vs. the Forces of Evil
Год выхода: 2015
Страна: США, Disney Television Animation, Disney XD, Daron Nefcy Productions
Жанр: Фантастика, комедия, приключения, мультсериал
Продолжительность: 13 x ~ 00:22:00
Перевод: Дублированный (Кириллица)
Режиссеры: Дэвид Вассон, Пьеро Пилузо, Аарон Хэммерсли, Майкл Маллен
Роли озвучивали: Артт Батлер, Джон Хидер, Адам МакАртур, Мина Нодзи, Брайан Посен, Райдер Стронг, Иден Шер
Роли дублировали: Наталья Терешкова, Иван Калинин, Александр Матвеев, Алексей Войтюк, Анастасия Лапина. ...
О фильме: История о девочке, живущей в ином измерении, по имени Стар Баттерфляй, которая получила в 14 лет волшебную палочку. Но после того, как Стар чуть ли не превратила свой родной город в прах, родители отправили её в другое измерение, которое называется Земля, чтобы жить с семьёй Диаз, которая состоит из добродушных родителей и подростка по имени Марко. Все одноклассники и друзья считают его тихоней, который остерегается даже обыкновенного падения. Марко считает это неправдой, и из-за такой репутации подросток жаждет приключений и опасностей.
s1e01. Звёздочка прибывает на Землю + Вечеринка с пони
s1e02. Сваха + Школьный дух
s1e03. Рука-монстр + Другой студент по обмену
s1e04. Не унывай, Звёздочка + Приключенческий супермаркет
s1e05. Отпуск семьи Диасз + Вечеринка Бриттни
s1e06. Мьюбертатный период + Пикстопия
s1e07. Ракорука + Сонное колдовство
s1e08. Бал кровавой луны + Печенья с предсказанием
s1e09. Замороженный день + Королевская боль
s1e10. Школа Святой Ольги для непутёвых принцесс
s1e11. День Мьюнизависимости + Банановый инцидент
s1e12. Межпространственная экскурсия + Марко растит бороду
s1e13. Штурм замка



Доп. информация:
Семпл


Файл
Формат: AVI
Качество: WEB-DLRip
Видео: 720x400 (1.80:1), 23.976 fps, XviD build 65 ~1601 kbps avg, 0.23 bit/pixel
Звук: 48 kHz, AC3 Dolby Digital, 2/0 (L,R) ch, ~192.00 kbps avg
Субтитры: нет
s1e02. Сваха + Школьный дух. Dub.XviD-merci-.avi
Формат : AVI
Формат/Информация : Audio Video Interleave
Размер файла : 282 Мбайт
Продолжительность : 21 м.
Общий поток : 1803 Кбит/сек
Программа кодирования : VirtualDubMod 1.5.10.3 | www.virtualdub-fr.org || (build 2550/release)
Библиотека кодирования : VirtualDubMod build 2550/release
Видео
Идентификатор : 0
Формат : MPEG-4 Visual
Профиль формата : Advanced Simple@L5
Параметр BVOP формата : 1
Параметр QPel формата : Нет
Параметр GMC формата : Без точки перехода
Параметр матрицы формата : Default (MPEG)
Идентификатор кодека : XVID
Идентификатор кодека/Подсказка : XviD
Продолжительность : 21 м.
Битрейт : 1601 Кбит/сек
Ширина : 720 пикселей
Высота : 400 пикселей
Соотношение сторон : 16:9
Частота кадров : 23,976 (23976/1000) кадра/сек
Цветовое пространство : YUV
Субдискретизация насыщенности : 4:2:0
Битовая глубина : 8 бит
Тип развёртки : Прогрессивная
Метод сжатия : С потерями
Бит/(Пиксели*Кадры) : 0.232
Размер потока : 250 Мбайт (89%)
Библиотека кодирования : XviD 65
Аудио
Идентификатор : 1
Формат : AC-3
Формат/Информация : Audio Coding 3
Расширение режима : CM (complete main)
Параметр Endianness формата : Big
Идентификатор кодека : 2000
Продолжительность : 21 м.
Вид битрейта : Постоянный
Битрейт : 192 Кбит/сек
Каналы : 2 канала
Расположение каналов : Front: L R
Частота : 48,0 КГц
Частота кадров : 31,250 кадров/сек (1536 spf)
Метод сжатия : С потерями
Размер потока : 30,0 Мбайт (11%)
Выравнивание : Разделение по промежуткам
Продолжительность промежутка : 42 мс. (1,00 видеокадр)
Время предзагрузки промежутка : 500 мс.
Заголовок : Dub


Релиз от:
Автор релиза: /



   Похожие торренты   Торрент   Размер 
В этой теме нет новых непрочитанных сообщений. Звёздная принцесса и силы зла / Star vs the Forces of Evil [S01] (2015) WEB-DLRip 1080p | D, P2, L

21 | 60

12.27 ГБ

В этой теме нет новых непрочитанных сообщений. Звёздная Принцесса и Силы Зла / Star vs the Forces of Evil [S01] (2014-2015) WEB-DLRip 1080p

62 | 32

11.42 ГБ

В этой теме нет новых непрочитанных сообщений. Стар против Сил Зла / Star vs the Forces of Evil [s01] (2015) WEB-DLRip от ExKinoRay | L2

42 | 35

3.5 ГБ

В этой теме нет новых непрочитанных сообщений. Стар против Сил Зла / Star vs the Forces of Evil [s02x01-11 из 14)] (2016) WEB-DLRip от ExKinoRay | L2

23 | 6

3.06 ГБ

В этой теме нет новых непрочитанных сообщений. Стар против Сил Зла / Star vs the Forces of Evil [s02x01-11 из 14)] (2016) WEB-DLRip от ExKinoRay | L2

69 | 24

3.06 ГБ

В этой теме нет новых непрочитанных сообщений. Силы природы / Forces of Nature (1999) WEB-DLRip от Leon-masl | P

155 | 17

1.47 ГБ

В этой теме нет новых непрочитанных сообщений. Звёздные войны: Пробуждение силы / Star Wars: Episode VII - The Force Awakens (2015) BDRip-AVC от ExKinoRay | iTunes

1243 | 80

3.69 ГБ




Вы не можете начинать темы
Вы не можете отвечать на сообщения
Вы не можете редактировать свои сообщения
Вы не можете удалять свои сообщения
Вы не можете добавлять вложения

Перейти:  
Для Мосгорсуда, Роскомнадзора и рекламодателей: mosgorsud-torrent[собачка]yandex.ru
 Вход
ppkBB3cker v.2 © 2008-2014 @ PPK
[ Time : 0.074s | 15 Queries | GZIP : Off ]

Торрент трекер RUTOR.IN, Не можете зайти на rutor.org? Какой новый адрес рутор? Какое зеркало рутор? Не работает rutor.org и зеркала? Тогда наш торрент специально для вас. Rutor.in неофициальное зеркало rutor. В случае если у Вас заблокирован rutor или вдруг Вы не можете на него зайти, то Вы без труда сможете скачать бесплатно и без рекламы последние новинки кино, игр, сериалов и прочего у нас, на Rutor.in. Не нужно использовать прокси, чтобы зайти на рутор, достаточно воспользоваться нашим ресурсом. Все новые фильмы, игры, сериалы, книги и музыка за 2013 и 2014 годы через торрент бесплатно. Скачивайте фильмы в хорошем качестве, игры для пк, xbox, playstation без регистрации. У нас вы найдете новые Зарубежные сериалы и Русские сериалы 2013, 2014, 2015 годов. Оставайтесь с нами, качайте любимые фильмы, игры, сериалы, книги и музыку.