img image001 image001 image001 image001 image001 image001 image001 image001 image001 image001 image001 image001 image001 image001 image001

Planets Sun Sun Sun
Статистика раздачи
Автор: PriZraK | Размер: 701.59 МБ | Добавлен: 25 окт 2016
Раздают: 158    Качают: 65
Скачать торрент
Скачать торрент
Описание торрента

СообщениеДобавлено: 25 окт 2016 


Информация о фильме
Название: Полный расколбас
Оригинальное название: Sausage Party
Год выхода: 2016
Жанр: Мультфильм, фэнтези, комедия, приключения
Режиссер: Грег Тирнан, Конрад Вернон
В ролях: Алистэр Эбелл, Айрис Апатоу, Стефани Бирд, Майкл Сера, Йен Джеймс Корлетт, Майкл Дэйнджерфилд, Брайан Добсон, Майкл Добсон, Джеймс Франко, Билл Хейдер
О фильме:
Первая анимационная комедия для взрослых о невероятных приключениях еды из супермаркета. Съедобным друзьям предстоит получить ответ на главный вопрос: есть ли жизнь за стенами супермаркета и что же происходит с продуктами после того, как они попадают к людям домой?

Страна: США
Студия: Annapurna Pictures, Columbia Pictures, Nitrogen Studios Canada, Point Grey Pictures
Продолжительность: 01:28:45
Перевод: Профессиональный (полное дублирование)[iTunes]
Файл
Качество: HDRip
Формат: AVI
Кодек: XviD
Видео: 720x384 (1.85:1), 23.976 fps, XviD ~968 kbps avg, 0.146 bit/pixel
Аудио: AC3, 48 kHz, 2 ch, ~128.00 kbps avg | русский | Профессиональный (полное дублирование)[iTunes]
Субтитры: Отсутствуют
Общее
Полное имя : PolniY.RasKolbass.2016.D.HDRip.7OOMB.avi
Формат : AVI
Формат/Информация : Audio Video Interleave
Размер файла : 702 Мбайт
Продолжительность : 1 ч. 28 м.
Общий поток : 1105 Кбит/сек
Программа кодирования : VirtualDubMod 1.5.10.2 (build 2540/release)
Библиотека кодирования : VirtualDubMod build 2540/release
Видео
Идентификатор : 0
Формат : MPEG-4 Visual
Профиль формата : Advanced Simple@L5
Параметр BVOP формата : 2
Параметр QPel формата : Нет
Параметр GMC формата : Без точки перехода
Параметр матрицы формата : Выборочная
Идентификатор кодека : XVID
Идентификатор кодека/Подсказка : XviD
Продолжительность : 1 ч. 28 м.
Битрейт : 968 Кбит/сек
Ширина : 720 пикселей
Высота : 384 пикселя
Соотношение сторон : 1,85:1
Частота кадров : 23,976 кадра/сек
Цветовое пространство : YUV
Субдискретизация насыщенности : 4:2:0
Битовая глубина : 8 бит
Тип развёртки : Прогрессивная
Метод сжатия : С потерями
Бит/(Пиксели*Кадры) : 0.146
Размер потока : 614 Мбайт (88%)
Библиотека кодирования : XviD 1.2.1 (UTC 2008-12-04)
Аудио
Идентификатор : 1
Формат : AC-3
Формат/Информация : Audio Coding 3
Расширение режима : CM (complete main)
Параметр Endianness формата : Big
Идентификатор кодека : 2000
Продолжительность : 1 ч. 28 м.
Вид битрейта : Постоянный
Битрейт : 128 Кбит/сек
Каналы : 2 канала
Расположение каналов : Front: L R
Частота : 48,0 КГц
Метод сжатия : С потерями
Задержка видео : 959 мс.
Размер потока : 81,3 Мбайт (12%)
Выравнивание : Разделение по промежуткам
Продолжительность промежутка : 42 мс. (1,00 видеокадр)
Время предзагрузки промежутка : 500 мс. .



   Похожие торренты   Торрент   Размер 
В этой теме нет новых непрочитанных сообщений. Полный расколбас / Sausage Party (2016) HDRip | iTunes

565 | 366

1.37 ГБ

В этой теме нет новых непрочитанных сообщений. Полный расколбас / Sausage Party (2016) HDRip от Generalfilm | КПК | iTunes

98 | 6

369.27 МБ

В этой теме нет новых непрочитанных сообщений. Полный расколбас / Sausage Party (2016) BDRip-AVC от HELLYWOOD | iTunes

268 | 10

1.42 ГБ

В этой теме нет новых непрочитанных сообщений. Полный расколбас / Sausage Party (2016) BDRip от ExKinoRay | iTunes

17 | 3

1.46 ГБ

В этой теме нет новых непрочитанных сообщений. Полный расколбас / Sausage Party (2016) BDRip от ExKinoRay | iTunes

374 | 212

1.42 ГБ

В этой теме нет новых непрочитанных сообщений. Полный расколбас / Sausage Party (2016) BDRip-AVC от R.G.Resident | iTunes

457 | 74

1.37 ГБ

В этой теме нет новых непрочитанных сообщений. Полный расколбас / Sausage Party (2016) BDRemux 1080p от ExKinoRay | iTunes

59 | 41

17.3 ГБ




Вы не можете начинать темы
Вы не можете отвечать на сообщения
Вы не можете редактировать свои сообщения
Вы не можете удалять свои сообщения
Вы не можете добавлять вложения

Перейти:  
Для Мосгорсуда, Роскомнадзора и рекламодателей: mosgorsud-torrent[собачка]yandex.ru
 Вход
ppkBB3cker v.2 © 2008-2014 @ PPK
[ Time : 0.571s | 14 Queries | GZIP : On ]

Торрент трекер RUTOR.IN, Не можете зайти на rutor.org? Какой новый адрес рутор? Какое зеркало рутор? Не работает rutor.org и зеркала? Тогда наш торрент специально для вас. Rutor.in неофициальное зеркало rutor. В случае если у Вас заблокирован rutor или вдруг Вы не можете на него зайти, то Вы без труда сможете скачать бесплатно и без рекламы последние новинки кино, игр, сериалов и прочего у нас, на Rutor.in. Не нужно использовать прокси, чтобы зайти на рутор, достаточно воспользоваться нашим ресурсом. Все новые фильмы, игры, сериалы, книги и музыка за 2013 и 2014 годы через торрент бесплатно. Скачивайте фильмы в хорошем качестве, игры для пк, xbox, playstation без регистрации. У нас вы найдете новые Зарубежные сериалы и Русские сериалы 2013, 2014, 2015 годов. Оставайтесь с нами, качайте любимые фильмы, игры, сериалы, книги и музыку.