img image001 image001 image001 image001 image001 image001 image001 image001 image001 image001 image001 image001 image001 image001 image001

Planets Sun Sun Sun
Статистика раздачи
Автор: PriZraK | Размер: 1.46 ГБ | Добавлен: 25 окт 2016
Раздают: 17    Качают: 5
Скачать торрент
Скачать торрент
Описание торрента

СообщениеДобавлено: 25 окт 2016 


Информация о фильме
Название: В поисках Дори
Оригинальное название: Finding Dory
Год выхода: 2016
Жанр: Мультфильм, комедия, приключения, семейный
Режиссер: Эндрю Стэнтон, Энгус МакЛэйн
Роли озвучивают: Эллен ДеДженерес, Альберт Брукс, Эд О’Нил, Кэйтлин Олсон, Хайден Роуленс, Тай Буррелл, Дайан Китон, Юджин Леви, Слоун Мюррэй, Идрис Эльба
О фильме:
Дори — синяя доброжелательная рыбка-хирург, страдающая провалами в памяти. Она упорно стремится избавиться от своего недуга и найти свою семью.

Страна: США
Студия: Pixar Animation Studios, Walt Disney Pictures
Продолжительность: 01:37:03
Перевод: Профессиональный (полное дублирование)[iTunes]
Файл
Качество: WEB-DLRip | Локализованный русский видеоряд
Формат: AVI
Кодек: XviD
Видео: 688x384 (16:9), 23,976 fps, XviD ~1761 kbps avg, 0.278 bit/pixel
Аудио: AC3, 48 kHz, 6 ch, ~384.00 kbps avg | русский | Профессиональный (полное дублирование)[iTunes]
Субтитры: Отсутствуют
Семпл
Общее
Полное имя : Finding.Dory.2016.D.WEB-DLRip.avi
Формат : AVI
Формат/Информация : Audio Video Interleave
Размер файла : 1,46 Гбайт
Продолжительность : 1 ч. 37 м.
Общий поток : 2154 Кбит/сек
Библиотека кодирования : VirtualDub build 35491/release
Видео
Идентификатор : 0
Формат : MPEG-4 Visual
Профиль формата : Advanced Simple@L5
Параметр BVOP формата : 2
Параметр QPel формата : Нет
Параметр GMC формата : Без точки перехода
Параметр матрицы формата : Выборочная
Идентификатор кодека : XVID
Идентификатор кодека/Подсказка : XviD
Продолжительность : 1 ч. 37 м.
Битрейт : 1761 Кбит/сек
Ширина : 688 пикселей
Высота : 384 пикселя
Соотношение сторон : 16:9
Частота кадров : 23,976 кадра/сек
Цветовое пространство : YUV
Субдискретизация насыщенности : 4:2:0
Битовая глубина : 8 бит
Тип развёртки : Прогрессивная
Метод сжатия : С потерями
Бит/(Пиксели*Кадры) : 0.278
Размер потока : 1,19 Гбайт (82%)
Библиотека кодирования : XviD 73
Аудио
Идентификатор : 1
Формат : AC-3
Формат/Информация : Audio Coding 3
Расширение режима : CM (complete main)
Параметр Endianness формата : Big
Идентификатор кодека : 2000
Продолжительность : 1 ч. 37 м.
Вид битрейта : Постоянный
Битрейт : 384 Кбит/сек
Каналы : 6 каналов
Расположение каналов : Front: L C R, Side: L R, LFE
Частота : 48,0 КГц
Метод сжатия : С потерями
Размер потока : 267 Мбайт (18%)
Выравнивание : Соединение по промежуткам
Продолжительность промежутка : 42 мс. (1,00 видеокадр)
Время предзагрузки промежутка : 512 мс.



   Похожие торренты   Торрент   Размер 
В этой теме нет новых непрочитанных сообщений. В поисках Дори / Finding Dory (2016) WEB-DLRip | iTunes

4 | 5

745.54 МБ

В этой теме нет новых непрочитанных сообщений. В поисках Дори / Finding Dory (2016) WEB-DLRip-AVC | iTunes

0 | 5

2.14 ГБ

В этой теме нет новых непрочитанных сообщений. В поисках Дори / Finding Dory (2016) WEB-DLRip-AVC | iTunes

60 | 7

1.45 ГБ

В этой теме нет новых непрочитанных сообщений. В поисках Дори / Finding Dory (2016) WEB-DLRip-AVC от ExKinoRay | iTunes

4 | 3

1.95 ГБ

В этой теме нет новых непрочитанных сообщений. В поисках Дори / Finding Dory (2016) WEB-DLRip от Scarabey | iTunes

134 | 15

745.52 МБ

В этой теме нет новых непрочитанных сообщений. В поисках Дори / Finding Dory (2016) WEB-DLRip от MegaPeer | iTunes

0 | 0

1.46 ГБ

В этой теме нет новых непрочитанных сообщений. В поисках Дори / Finding Dory (2016) WEB-DLRip от Kaztorrents | КПК | iTunes

27 | 9

623.98 МБ




Вы не можете начинать темы
Вы не можете отвечать на сообщения
Вы не можете редактировать свои сообщения
Вы не можете удалять свои сообщения
Вы не можете добавлять вложения

Перейти:  
Для Мосгорсуда, Роскомнадзора и рекламодателей: mosgorsud-torrent[собачка]yandex.ru
 Вход
ppkBB3cker v.2 © 2008-2014 @ PPK
[ Time : 0.036s | 16 Queries | GZIP : Off ]

cron