img image001 image001 image001 image001 image001 image001 image001 image001 image001 image001 image001 image001 image001 image001 image001

Planets Sun Sun Sun
Статистика раздачи
Автор: PriZraK | Размер: 5.02 ГБ | Добавлен: 29 окт 2016
Раздают: 69    Качают: 9
Скачать торрент
Скачать торрент
Описание торрента

СообщениеДобавлено: 29 окт 2016 


Информация о фильме
Название: В поисках Дори
Оригинальное название: Finding Dory
Страна: США
Студия: Pixar Animation Studios, Walt Disney Pictures
Жанр: Мультфильм, комедия, приключения, семейный
Год выпуска: 2016
Продолжительность: 01:37:03
Перевод: Профессиональный (дублированный) iTunes
Cубтитры: Rus, Eng
Оригинальная аудиодорожка: английский
Режиссер: Эндрю Стэнтон, Энгус МакЛэйн / Andrew Stanton, Angus MacLane
В ролях: Эллен ДеДженерес, Альберт Брукс, Эд О’Нил, Кэйтлин Олсон, Хайден Роуленс, Тай Буррелл, Дайан Китон, Юджин Леви, Слоун Мюррэй, Идрис Эльба
Описание: Дори — синяя доброжелательная рыбка-хирург, страдающая провалами в памяти. Она упорно стремится избавиться от своего недуга и найти свою семью.

Тип релиза: BDRip 720p
Контейнер: MKV
Видео: MPEG-4 AVC, 5500 Кбит/с, 1280x720, 23,976 fps
Аудио: Rus, AC3, 384 kb/s (6 ch), 48 kHz
Аудио 2: Eng, DTS, 1510 kb/s (6 ch), 48 kHz
Формат субтитров: softsub (SRT)
Раздача от:
x264 [info]: frame I:887 Avg QP:15.37 size:102889
x264 [info]: frame P:34793 Avg QP:16.83 size: 50534
x264 [info]: frame B:103949 Avg QP:17.37 size: 20741
Format : Matroska
Format version : Version 4 / Version 2
File size : 5.02 GiB
Duration : 1h 37mn
Overall bit rate : 7 398 Kbps
Movie name : В поисках Дори. (Tonik)
Encoded date : UTC 2016-10-27 02:42:36
Writing application : mkvmerge v7.1.0 ('Good Love') 64bit built on Jul 27 2014 13:06:55
Writing library : libebml v1.3.0 + libmatroska v1.4.1
_STATISTICS_WRITING_APP : mkvmerge v7.1.0 ('Good Love') 64bit built on Jul 27 2014 13:06:55
_STATISTICS_WRITING_DATE_UTC : 2016-10-27 02:42:36
_STATISTICS_TAGS : BPS DURATION NUMBER_OF_FRAMES NUMBER_OF_BYTES
DURATION : 01:37:03.744000000
NUMBER_OF_FRAMES : 181992
NUMBER_OF_BYTES : 279539712
Video
ID : 1
Format : AVC
Format/Info : Advanced Video Codec
Format profile : High@L4.1
Format settings, CABAC : Yes
Format settings, ReFrames : 9 frames
Codec ID : V_MPEG4/ISO/AVC
Duration : 1h 37mn
Bit rate : 5 500 Kbps
Width : 1 280 pixels
Height : 720 pixels
Display aspect ratio : 16:9
Frame rate mode : Constant
Frame rate : 23.976 fps
Color space : YUV
Chroma subsampling : 4:2:0
Bit depth : 8 bits
Scan type : Progressive
Bits/(Pixel*Frame) : 0.249
Stream size : 3.63 GiB (72%)
Writing library : x264 core 148 r2665kMod a01e339
Encoding settings : cabac=1 / ref=9 / deblock=1:-1:-1 / analyse=0x3:0x133 / me=umh / subme=11 / psy=1 / fade_compensate=0.00 / psy_rd=0.70:0.00 / mixed_ref=1 / me_range=32 / chroma_me=1 / trellis=2 / 8x8dct=1 / cqm=0 / deadzone=21,11 / fast_pskip=0 / chroma_qp_offset=-2 / threads=22 / lookahead_threads=3 / sliced_threads=0 / nr=0 / decimate=0 / interlaced=0 / bluray_compat=0 / constrained_intra=0 / fgo=0 / bframes=8 / b_pyramid=2 / b_adapt=2 / b_bias=0 / direct=3 / weightb=1 / open_gop=0 / weightp=2 / keyint=240 / keyint_min=24 / scenecut=40 / intra_refresh=0 / rc=2pass / mbtree=0 / bitrate=5500 / ratetol=1.0 / qcomp=0.70 / qpmin=0 / qpmax=69 / qpstep=4 / cplxblur=20.0 / qblur=0.5 / ip_ratio=1.10 / pb_ratio=1.20 / aq=3:1.10
Language : English
Default : Yes
Forced : No
_STATISTICS_WRITING_APP : mkvmerge v7.1.0 ('Good Love') 64bit built on Jul 27 2014 13:06:55
_STATISTICS_WRITING_DATE_UTC : 2016-10-27 02:42:36
_STATISTICS_TAGS : BPS DURATION NUMBER_OF_FRAMES NUMBER_OF_BYTES
DURATION : 01:37:03.693000000
NUMBER_OF_FRAMES : 139629
NUMBER_OF_BYTES : 4005501756
Audio #1
ID : 2
Format : AC-3
Format/Info : Audio Coding 3
Mode extension : CM (complete main)
Format settings, Endianness : Big
Codec ID : A_AC3
Duration : 1h 37mn
Bit rate mode : Constant
Bit rate : 384 Kbps
Channel(s) : 6 channels
Channel positions : Front: L C R, Side: L R, LFE
Sampling rate : 48.0 KHz
Bit depth : 16 bits
Compression mode : Lossy
Stream size : 267 MiB (5%)
Title : iTunes
Language : Russian
Default : Yes
Forced : No
Audio #2
ID : 3
Format : DTS
Format/Info : Digital Theater Systems
Mode : 16
Format settings, Endianness : Big
Codec ID : A_DTS
Duration : 1h 37mn
Bit rate mode : Constant
Bit rate : 1 509 Kbps
Channel(s) : 6 channels
Channel positions : Front: L C R, Side: L R, LFE
Sampling rate : 48.0 KHz
Bit depth : 24 bits
Compression mode : Lossy
Stream size : 1.02 GiB (20%)
Language : English
Default : No
Forced : No
Text #1
ID : 4
Format : UTF-8
Codec ID : S_TEXT/UTF8
Codec ID/Info : UTF-8 Plain Text
Language : Russian
Default : No
Forced : No
Text #2
ID : 5
Format : UTF-8
Codec ID : S_TEXT/UTF8
Codec ID/Info : UTF-8 Plain Text
Language : English
Default : No
Forced : No
Menu
00:00:00.000 : en:Chapter 01
00:02:35.738 : en:Chapter 02
00:06:50.243 : en:Chapter 03
00:10:53.194 : en:Chapter 04
00:13:33.187 : en:Chapter 05
00:15:25.132 : en:Chapter 06
00:17:03.313 : en:Chapter 07
00:19:35.465 : en:Chapter 08
00:21:35.293 : en:Chapter 09
00:24:58.705 : en:Chapter 10
00:27:08.543 : en:Chapter 11
00:30:33.206 : en:Chapter 12
00:35:00.264 : en:Chapter 13
00:37:52.019 : en:Chapter 14
00:40:17.998 : en:Chapter 15
00:41:06.672 : en:Chapter 16
00:42:30.422 : en:Chapter 17
00:46:03.427 : en:Chapter 18
00:48:41.710 : en:Chapter 19
00:50:27.857 : en:Chapter 20
00:55:06.678 : en:Chapter 21
00:57:05.838 : en:Chapter 22
01:00:41.345 : en:Chapter 23
01:04:32.952 : en:Chapter 24
01:10:36.815 : en:Chapter 25
01:12:28.301 : en:Chapter 26
01:14:09.861 : en:Chapter 27
01:18:26.493 : en:Chapter 28
01:26:49.328 : en:Chapter 29
01:37:03.400 : en:Chapter 30





   Похожие торренты   Торрент   Размер 
В этой теме нет новых непрочитанных сообщений. В поисках Дори / Finding Dory (2016) BDRip 1080p от New-Team | iTunes

16 | 3

11.73 ГБ

В этой теме нет новых непрочитанных сообщений. В поисках Дори / Finding Dory (2016) BDRip 1080p от New-Team & qqss44 | iTunes

213 | 19

8.55 ГБ

В этой теме нет новых непрочитанных сообщений. В поисках Дори / Finding Dory (2016) BDRip 720p | iTunes

123 | 11

2.74 ГБ

В этой теме нет новых непрочитанных сообщений. В поисках Дори / Finding Dory (2016) BDRip 720p от ExKinoRay | iTunes

382 | 13

4.46 ГБ

В этой теме нет новых непрочитанных сообщений. В поисках Дори / Finding Dory (2016) BDRip 720p от HELLYWOOD | iTunes

17 | 6

4.2 ГБ

В этой теме нет новых непрочитанных сообщений. В поисках Дори / Finding Dory (2016) WEB-DL 720p от ExKinoRay | iTunes

20 | 4

3.47 ГБ

В этой теме нет новых непрочитанных сообщений. В поисках Дори / Finding Dory (2016) BDRip-AVC от HELLYWOOD | iTunes

212 | 13

1.46 ГБ




Вы не можете начинать темы
Вы не можете отвечать на сообщения
Вы не можете редактировать свои сообщения
Вы не можете удалять свои сообщения
Вы не можете добавлять вложения

Перейти:  
Для Мосгорсуда, Роскомнадзора и рекламодателей: mosgorsud-torrent[собачка]yandex.ru
 Вход
ppkBB3cker v.2 © 2008-2014 @ PPK
[ Time : 0.395s | 14 Queries | GZIP : Off ]

Торрент трекер RUTOR.IN, Не можете зайти на rutor.org? Какой новый адрес рутор? Какое зеркало рутор? Не работает rutor.org и зеркала? Тогда наш торрент специально для вас. Rutor.in неофициальное зеркало rutor. В случае если у Вас заблокирован rutor или вдруг Вы не можете на него зайти, то Вы без труда сможете скачать бесплатно и без рекламы последние новинки кино, игр, сериалов и прочего у нас, на Rutor.in. Не нужно использовать прокси, чтобы зайти на рутор, достаточно воспользоваться нашим ресурсом. Все новые фильмы, игры, сериалы, книги и музыка за 2013 и 2014 годы через торрент бесплатно. Скачивайте фильмы в хорошем качестве, игры для пк, xbox, playstation без регистрации. У нас вы найдете новые Зарубежные сериалы и Русские сериалы 2013, 2014, 2015 годов. Оставайтесь с нами, качайте любимые фильмы, игры, сериалы, книги и музыку.