img image001 image001 image001 image001 image001 image001 image001 image001 image001 image001 image001 image001 image001 image001 image001

Planets Sun Sun Sun
Статистика раздачи
Автор: PriZraK | Размер: 5.45 ГБ | Добавлен: 31 окт 2016
Раздают: 222    Качают: 78
Скачать торрент
Скачать торрент
Описание торрента

СообщениеДобавлено: 31 окт 2016 

Информация о фильме:
Название: Страж-лев / Львиная Гвардия / Хранитель Лев
Оригинальное название: The Lion Guard
Производство: США, Disney Television Animation, Lioness Productions
Дата мировой премьеры: 15 января 2016
Дата российской премьеры: 10 сентября 2016
Жанр: мультсериал, комедия, мюзикл, семейный, приключения
Режиссер: Хауи Паркинс
В ролях: Джефф Беннетт, Дусан Браун, Макс Чарльз, Сара Хайланд, Джеймс Эрл Джонс, Эндрю Кисино, Роб Лоу, Хари Пэйтон, Мэдисон Петтис, Джонни Рис, Иден Ригел, Джошуа Раш, Эрни Сабелла, Кевин Шон, Аттикус Шаффер, Гэбриэл Юнион, Даймонд Уайт
Описание:
Львёнок по имени Кион — второй детёныш Симбы и Налы, младший брат Киары. Пришло время, когда он неожиданно для себя овладел рыком древних — способностью всех вторых детей в королевской семье, благодаря которой они становятся лидерами львиной гвардии. Львиная гвардия — отряд из пяти львов, защищающих земли Прайда и круг жизни: самого свирепого (лидера), самого смелого, самого сильного, самого быстрого и самого зоркого. Но вместо того, чтобы собрать отряд львов, Кион собрал отряд самых разных животных, в чьих способностях и верности был уверен.

Информация о файле:
Контейнер: AVI
Качество видео: SATRip
Перевод: Дублированный
Видео: MPEG4, XviD, 720x400 (16:9), 25.000 fps, 1 807 Kbps (0.251 bit/pixel)
Аудио: Русский AC-3, 48.0 KHz, 2 ch, 192 Kbps, CBR
Субтитры: отсутствуют
Продолжительность: ~ 00:22:00 серия
Сэмпл: Скачать
0.Герои саванны
1.Мятеж Маку
2.Банга Премудрый
3.Гиена гиене рознь
4.Скорей бы стать королевой
5.Глаз смотрящего
6.Праздник Купатана
7.Новая семья для Фули
8.Поиски Утаму
9.Вперед, за бегемотом
10.Зов Дронго
11.Рисунки и предрассудки
12.Великое переселение
13.Банга и король
14.Воображаемый Окапи
15.Многовато термитов
16.Неприятности с галаго
Общее
Полное имя : G:ТоррентыСтраж-лев (Львиная Гвардия) - The Lion Guard (2016)Страж-лев - The Lion Guard. Серия 01 Мятеж Маку(2016).avi
Формат : AVI
Формат/Информация : Audio Video Interleave
Размер файла : 310 Мбайт
Продолжительность : 21 м. 36 с.
Общий поток : 2003 Кбит/сек
Программа кодирования : VirtualDubMod 1.5.10.3 | www.virtualdub-fr.org || (build 2550/release)
Библиотека кодирования : VirtualDubMod build 2550/release
Видео
Идентификатор : 0
Формат : MPEG-4 Visual
Профиль формата : Advanced Simple@L5
Параметр BVOP формата : 2
Параметр QPel формата : Нет
Параметр GMC формата : Без точки перехода
Параметр матрицы формата : Default (MPEG)
Идентификатор кодека : XVID
Идентификатор кодека/Подсказка : XviD
Продолжительность : 21 м. 36 с.
Битрейт : 1802 Кбит/сек
Ширина : 720 пикселей
Высота : 400 пикселей
Соотношение сторон : 16:9
Частота кадров : 25,000 кадров/сек
Цветовое пространство : YUV
Субдискретизация насыщенности : 4:2:0
Битовая глубина : 8 бит
Тип развёртки : Прогрессивная
Метод сжатия : С потерями
Бит/(Пиксели*Кадры) : 0.250
Размер потока : 278 Мбайт (90%)
Библиотека кодирования : XviD 1.2.1 (UTC 2008-12-04)
Аудио
Идентификатор : 1
Формат : AC-3
Формат/Информация : Audio Coding 3
Расширение режима : CM (complete main)
Параметр Endianness формата : Big
Идентификатор кодека : 2000
Продолжительность : 21 м. 36 с.
Вид битрейта : Постоянный
Битрейт : 192 Кбит/сек
Каналы : 2 канала
Расположение каналов : Front: L R
Частота : 48,0 КГц
Частота кадров : 31,250 кадров/сек (1536 spf)
Метод сжатия : С потерями
Размер потока : 29,7 Мбайт (10%)
Выравнивание : Разделение по промежуткам
Продолжительность промежутка : 40 мс. (1,00 видеокадр)
Время предзагрузки промежутка : 500 мс.

Скриншоты:




   Похожие торренты   Торрент   Размер 
В этой теме нет новых непрочитанных сообщений. Страж-лев: Возвращение Рыка / The Lion Guard: Return of the Roar (2015) SATRip | D

257 | 8

597.05 МБ

В этой теме нет новых непрочитанных сообщений. Страж-лев: Возвращение Рыка / The Lion Guard: Return of the Roar (2015) WEB-DLRip | L

2337 | 69

761.53 МБ

В этой теме нет новых непрочитанных сообщений. Страж-лев: Возвращение Рыка / The Lion Guard: Return of the Roar (2015) WEB-DLRip | КПК | Чистый звук

1091 | 17

231.8 МБ

В этой теме нет новых непрочитанных сообщений. Страж-лев: Возвращение Рыка / The Lion Guard: Return of the Roar (2015) WEB-DLRip | Чистый звук

4219 | 174

698.22 МБ

В этой теме нет новых непрочитанных сообщений. Страж-лев / The Lion Guard: Return of the Roar (Хауи Паркинс) [2015, мультфильм, семейный, приключения, WEBRip-AVC] DUB

1137 | 24

759.04 МБ

В этой теме нет новых непрочитанных сообщений. Львиная Армия / Lion Army (2007) HDTVRip 1080p MediaClub

4 | 3

3.88 ГБ

В этой теме нет новых непрочитанных сообщений. Том и Джерри: Каратист-Хранитель / Tom and Jerry: The Karate Guard (2005) DVDRip

14 | 6

111.68 МБ




Вы не можете начинать темы
Вы не можете отвечать на сообщения
Вы не можете редактировать свои сообщения
Вы не можете удалять свои сообщения
Вы не можете добавлять вложения

Перейти:  
Для Мосгорсуда, Роскомнадзора и рекламодателей: mosgorsud-torrent[собачка]yandex.ru
 Вход
ppkBB3cker v.2 © 2008-2014 @ PPK
[ Time : 0.511s | 16 Queries | GZIP : Off ]

Торрент трекер RUTOR.IN, Не можете зайти на rutor.org? Какой новый адрес рутор? Какое зеркало рутор? Не работает rutor.org и зеркала? Тогда наш торрент специально для вас. Rutor.in неофициальное зеркало rutor. В случае если у Вас заблокирован rutor или вдруг Вы не можете на него зайти, то Вы без труда сможете скачать бесплатно и без рекламы последние новинки кино, игр, сериалов и прочего у нас, на Rutor.in. Не нужно использовать прокси, чтобы зайти на рутор, достаточно воспользоваться нашим ресурсом. Все новые фильмы, игры, сериалы, книги и музыка за 2013 и 2014 годы через торрент бесплатно. Скачивайте фильмы в хорошем качестве, игры для пк, xbox, playstation без регистрации. У нас вы найдете новые Зарубежные сериалы и Русские сериалы 2013, 2014, 2015 годов. Оставайтесь с нами, качайте любимые фильмы, игры, сериалы, книги и музыку.
cron