img image001 image001 image001 image001 image001 image001 image001 image001 image001 image001 image001 image001 image001 image001 image001

Planets Sun Sun Sun
Статистика раздачи
Автор: PriZraK | Размер: 4.37 ГБ | Добавлен: 02 ноя 2016
Раздают: 9    Качают: 1
Скачать торрент
Скачать торрент
Описание торрента

СообщениеДобавлено: 02 ноя 2016 


Информация о фильме
Название: Последний единорог
Оригинальное название: The Last Unicorn
Год выхода: 1982
Жанр: мультфильм, фэнтези, семейный
Режиссер: Жуль Басс, Артур Ранкин мл.
В ролях: Алан Аркин, Джефф Бриджес, Миа Фэрроу, Кинэн Уинн, Пол Фрис, Кристофер Ли, Дон Мессик, Роберт Клэйн, Джек Лестер, Рене Обержонуа, Анджела Лэнсбери, Тэмми Граймз, Эд Пек, Нелли Беллфлауэр, Брава Теодор
О фильме:
В далекой волшебной стране в сиреневой роще жил юный прекрасный единорог, знающий секреты магии. Однажды он узнал, что все его сородичи исчезли с лица земли, и он может стать последним единорогом на свете. И тогда единорог покинул свою рощу и отправился в долгое и опасное путешествие, чтобы разыскать и спасти своих сородичей. Много приключений пришлось ему пережить и многих опасных врагов довелось повстречать - свиноподобную ведьму Матушку Фортуну, шайку разбойников капитана Калли, злобного и жадного короля Хэггорда. Но с помощью верных друзей - волшебника-недоучки Шмендрика, девушки Молли и прекрасного принца Лира - единорогу удалось одолеть огромного и страшного Красного Быка и освободить своих собратьев-единорогов.

Страна: США, Япония, Великобритания, Германия (ФРГ)
Студия: Rankin/Bass Productions, Incorporated Television Company (ITC), Topcraft
Продолжительность: 01:33:03
Перевод: Дублированный, профессиональный многоголосый
Файл
Кодек: x264
Качество: BDRip 720p
Видео: MPEG-4 AVC, 5900 Кбит/с, 1280x688, 23.976 кадр/с
Аудио #1: AC3, 2 ch, 192 Кбит/с | Дублированный
Аудио #2: AC3, 2 ch, 224 Кбит/с | Профессиональный многоголосый
Аудио #3: AC3, 6 ch, 448 Кбит/с | Английский
Субтитры: Русские, английские
Общее
Уникальный идентификатор : 215882596847091232204358522480420244826 (0xA26979CC52FB3F179F141303D920CD5A)
Полное имя : The.Last.Unicorn.Enchanted.Edition.1982.BDRip.720p.mkv
Формат : Matroska
Версия формата : Version 4 / Version 2
Размер файла : 4,37 Гбайт
Продолжительность : 1 ч. 33 м.
Общий поток : 6722 Кбит/сек
Название фильма : The Last Unicorn by Koenig
Дата кодирования : UTC 2016-11-01 05:18:27
Программа кодирования : mkvmerge v9.2.0 ('Photograph') 32bit
Библиотека кодирования : libebml v1.3.3 + libmatroska v1.4.4
Обложка : Yes
Attachments : cover.jpg
Видео
Идентификатор : 1
Формат : AVC
Формат/Информация : Advanced Video Codec
Профиль формата : High@L4.1
Параметр CABAC формата : Да
Параметр ReFrames формата : 9 кадров
Идентификатор кодека : V_MPEG4/ISO/AVC
Продолжительность : 1 ч. 32 м.
Битрейт : 5898 Кбит/сек
Ширина : 1280 пикселей
Высота : 688 пикселей
Соотношение сторон : 1,85:1
Режим частоты кадров : Постоянный
Частота кадров : 23,976 (24000/1001) кадра/сек
Цветовое пространство : YUV
Субдискретизация насыщенности : 4:2:0
Битовая глубина : 8 бит
Тип развёртки : Прогрессивная
Бит/(Пиксели*Кадры) : 0.279
Размер потока : 3,83 Гбайт (88%)
Заголовок : The Last Unicorn
Библиотека кодирования : x264 core 148 r2692 64f4e24
Настройки программы : cabac=1 / ref=9 / deblock=1:0:0 / analyse=0x3:0x133 / me=umh / subme=10 / psy=1 / psy_rd=1.00:0.00 / mixed_ref=1 / me_range=32 / chroma_me=1 / trellis=2 / 8x8dct=1 / cqm=0 / deadzone=21,11 / fast_pskip=1 / chroma_qp_offset=-2 / threads=3 / lookahead_threads=1 / sliced_threads=0 / nr=0 / decimate=1 / interlaced=0 / bluray_compat=0 / constrained_intra=0 / bframes=12 / b_pyramid=2 / b_adapt=2 / b_bias=0 / direct=3 / weightb=1 / open_gop=0 / weightp=2 / keyint=240 / keyint_min=23 / scenecut=40 / intra_refresh=0 / rc_lookahead=40 / rc=2pass / mbtree=1 / bitrate=5898 / ratetol=1.0 / qcomp=0.60 / qpmin=0 / qpmax=51 / qpstep=4 / cplxblur=20.0 / qblur=0.5 / vbv_maxrate=50000 / vbv_bufsize=62500 / nal_hrd=none / filler=0 / ip_ratio=1.40 / aq=1:1.00
Default : Да
Forced : Нет
Аудио #1
Идентификатор : 2
Формат : AC-3
Формат/Информация : Audio Coding 3
Расширение режима : CM (complete main)
Параметр Endianness формата : Big
Идентификатор кодека : A_AC3
Продолжительность : 1 ч. 32 м.
Вид битрейта : Постоянный
Битрейт : 192 Кбит/сек
Каналы : 2 канала
Расположение каналов : Front: L R
Частота : 48,0 КГц
Частота кадров : 31,250 кадров/сек (1536 spf)
Метод сжатия : С потерями
Размер потока : 127 Мбайт (3%)
Заголовок : DUB
Язык : Russian
Default : Да
Forced : Нет
Аудио #2
Идентификатор : 3
Формат : AC-3
Формат/Информация : Audio Coding 3
Расширение режима : CM (complete main)
Параметр Endianness формата : Big
Идентификатор кодека : A_AC3
Продолжительность : 1 ч. 32 м.
Вид битрейта : Постоянный
Битрейт : 192 Кбит/сек
Каналы : 2 канала
Расположение каналов : Front: L R
Частота : 48,0 КГц
Частота кадров : 31,250 кадров/сек (1536 spf)
Метод сжатия : С потерями
Размер потока : 127 Мбайт (3%)
Заголовок : MVO
Язык : Russian
Default : Нет
Forced : Нет
Аудио #3
Идентификатор : 4
Формат : AC-3
Формат/Информация : Audio Coding 3
Расширение режима : CM (complete main)
Параметр Endianness формата : Big
Идентификатор кодека : A_AC3
Продолжительность : 1 ч. 33 м.
Вид битрейта : Постоянный
Битрейт : 448 Кбит/сек
Каналы : 6 каналов
Расположение каналов : Front: L C R, Side: L R, LFE
Частота : 48,0 КГц
Частота кадров : 31,250 кадров/сек (1536 spf)
Метод сжатия : С потерями
Размер потока : 298 Мбайт (7%)
Язык : English
Default : Нет
Forced : Нет
Текст #1
Идентификатор : 5
Формат : UTF-8
Идентификатор кодека : S_TEXT/UTF8
Идентификатор кодека/Информация : UTF-8 Plain Text
Продолжительность : 1 ч. 30 м.
Битрейт : 99 бит/сек
Count of elements : 1041
Размер потока : 66,0 Кбайт (0%)
Язык : Russian
Default : Да
Forced : Нет
Текст #2
Идентификатор : 6
Формат : UTF-8
Идентификатор кодека : S_TEXT/UTF8
Идентификатор кодека/Информация : UTF-8 Plain Text
Продолжительность : 1 ч. 29 м.
Битрейт : 56 бит/сек
Count of elements : 1031
Размер потока : 37,3 Кбайт (0%)
Язык : English
Default : Нет
Forced : Нет
Меню
00:00:00.000 : en:Good Luck to You/Main Titles
00:10:56.364 : en:The Butterfly's Songs and Story
00:17:23.042 : en:The Search Begins
00:24:03.692 : en:Carnival Captors
00:30:18.733 : en:Schmendrick Can See Her
00:36:32.064 : en:Mommy Knows Best
00:42:14.323 : en:Freedom for All
00:46:19.651 : en:Going on Together
00:50:29.651 : en:Bands of Outlaws
00:55:07.470 : en:Rescue... and Another Companion
00:59:23.560 : en:The Red Bull
01:05:01.355 : en:"What Have You Done?"
01:09:19.029 : en:In King Haggard's Castle
01:14:09.445 : en:Settling In
01:23:15.490 : en:Now That I'm a Woman
01:28:10.118 : en:The Cat's Riddle
01:33:03.369 : en:That's All I've Got to Say



   Похожие торренты   Торрент   Размер 
В этой теме нет новых непрочитанных сообщений. Последний Единорог / The Last Unicorn (1982) BDRip 720p

0 | 2

3.41 ГБ

В этой теме нет новых непрочитанных сообщений. Последний Единорог / The Last Unicorn (1982) BDRip 1080p

7 | 1

5.6 ГБ

В этой теме нет новых непрочитанных сообщений. Последний единорог / The Last Unicorn (1982) BDRip-AVC от MediaClub | D, P

26 | 4

2.71 ГБ

В этой теме нет новых непрочитанных сообщений. Последний Единорог / The Last Unicorn (1982) BDRip от HQCLUB

84 | 6

1.45 ГБ

В этой теме нет новых непрочитанных сообщений. Последний Единорог / The Last Unicorn (1982) BDRip 1080р от NNNB

66 | 5

7.77 ГБ

В этой теме нет новых непрочитанных сообщений. Последний Единорог / The Last Unicorn (1982) HDRip | P

44 | 8

743.78 МБ

В этой теме нет новых непрочитанных сообщений. Последний Единорог / The Last Unicorn (1982) DVD5

0 | 2

4.24 ГБ




Вы не можете начинать темы
Вы не можете отвечать на сообщения
Вы не можете редактировать свои сообщения
Вы не можете удалять свои сообщения
Вы не можете добавлять вложения

Перейти:  
Для Мосгорсуда, Роскомнадзора и рекламодателей: mosgorsud-torrent[собачка]yandex.ru
 Вход
ppkBB3cker v.2 © 2008-2014 @ PPK
[ Time : 0.023s | 14 Queries | GZIP : Off ]

Торрент трекер RUTOR.IN, Не можете зайти на rutor.org? Какой новый адрес рутор? Какое зеркало рутор? Не работает rutor.org и зеркала? Тогда наш торрент специально для вас. Rutor.in неофициальное зеркало rutor. В случае если у Вас заблокирован rutor или вдруг Вы не можете на него зайти, то Вы без труда сможете скачать бесплатно и без рекламы последние новинки кино, игр, сериалов и прочего у нас, на Rutor.in. Не нужно использовать прокси, чтобы зайти на рутор, достаточно воспользоваться нашим ресурсом. Все новые фильмы, игры, сериалы, книги и музыка за 2013 и 2014 годы через торрент бесплатно. Скачивайте фильмы в хорошем качестве, игры для пк, xbox, playstation без регистрации. У нас вы найдете новые Зарубежные сериалы и Русские сериалы 2013, 2014, 2015 годов. Оставайтесь с нами, качайте любимые фильмы, игры, сериалы, книги и музыку.