img image001 image001 image001 image001 image001 image001 image001 image001 image001 image001 image001 image001 image001 image001 image001

Planets Sun Sun Sun
Статистика раздачи
Автор: PriZraK | Размер: 5.59 ГБ | Добавлен: 02 ноя 2016, 23:32
Раздают: 111    Качают: 33
Скачать торрент
Скачать торрент
Описание торрента

СообщениеДобавлено: 02 ноя 2016, 23:32 


Информация о фильме
Название: Ледниковый период: Столкновение неизбежно
Оригинальное название: Ice Age: Collision Course
Год выхода: 2016
Жанр: мультфильм, фантастика, комедия, приключения, семейный
Режиссер: Майк Тёрмайер, Гален Т. Чу
В ролях: Рэй Романо, Джон Легуизамо, Дэнис Лири, Куин Латифа, Шонн Уильям Скотт, Саймон Пегг, Дженнифер Лопез, Нил Тайсон, Джесси Тайлер Фергюсон
О фильме: Отчаянная погоня за неуловимым жёлудем катапультирует Скрата прямо в космос, где он случайно запускает целую серию космических событий. Именно они изменят весь мир Ледникового периода и станут реальной угрозой для него. Чтобы спастись, Сид, Мэнни, Диего и остальные звери должны покинуть свои дома, отправиться в забавное и захватывающее приключение в экзотические новые земли и встретиться со множеством красочных новых персонажей...
Страна: США, 20th Century Fox Animation, Blue Sky Studios
Продолжительность: 01:34:33
Перевод: Профессиональный (полное дублирование) | Лицензия

Файл
Качество: BDRip (720p)
Видео: MPEG-4 AVC, 5575 Kбит/с, 1280x534
Аудио: Русский (DTS, 6 ch, 768 Кбит/с), украинский (AC3, 6 ch, 448 Кбит/с), английский (DTS, 6 ch, 1510 Кбит/с)
Субтитры: Русские, английские, украинские



Общее
Уникальный идентификатор : 180554968450988164508488734460238941017 (0x87D59F3DAB9CF9EF9244FD78E8F8CB59)
Полное имя : Ice.Age.Collision.Course.2016.720p.BluRay.DTS-ES.Rus.Ukr.Eng.HDCLUB.mkv
Формат : Matroska
Версия формата : Version 2
Размер файла : 5,59 Гбайт
Продолжительность : 1 ч. 34 м.
Общий поток : 8468 Кбит/сек
Название фильма : Ice Age: Collision Course (2016) - Release for HDCLUB
Дата кодирования : UTC 2016-11-02 13:48:54
Программа кодирования : mkvmerge v3.4.0 ('Rapunzel') built on May 15 2010 09:38:20
Библиотека кодирования : libebml v0.8.0 + libmatroska v0.9.0
Видео
Идентификатор : 1
Формат : AVC
Формат/Информация : Advanced Video Codec
Профиль формата : High@L4.1
Параметр CABAC формата : Да
Параметр ReFrames формата : 12 кадров
Идентификатор кодека : V_MPEG4/ISO/AVC
Продолжительность : 1 ч. 34 м.
Битрейт : 5575 Кбит/сек
Ширина : 1280 пикселей
Высота : 534 пикселя
Соотношение сторон : 2,40:1
Режим частоты кадров : Постоянный
Частота кадров : 23,976 кадра/сек
Цветовое пространство : YUV
Субдискретизация насыщенности : 4:2:0
Битовая глубина : 8 бит
Тип развёртки : Прогрессивная
Бит/(Пиксели*Кадры) : 0.340
Размер потока : 3,68 Гбайт (66%)
Заголовок : Ice Age: Collision Course (2016) - Release for HDCLUB
Библиотека кодирования : x264 core 148 r2705.16 d50a22e VietHD_Custom_64
Настройки программы : cabac=1 / ref=12 / deblock=1:-3:-3 / analyse=0x3:0x133 / me=umh / subme=10 / psy=1 / fade_compensate=0.00 / psy_rd=0.90:0.00 / mixed_ref=1 / me_range=24 / chroma_me=1 / trellis=2 / 8x8dct=1 / cqm=0 / deadzone=21,11 / fast_pskip=0 / chroma_qp_offset=-2 / threads=56 / lookahead_threads=4 / sliced_threads=0 / nr=0 / decimate=0 / interlaced=0 / bluray_compat=0 / constrained_intra=0 / fgo=0 / bframes=8 / b_pyramid=2 / b_adapt=2 / b_bias=0 / direct=3 / weightb=1 / open_gop=0 / weightp=2 / keyint=250 / keyint_min=23 / scenecut=40 / intra_refresh=0 / rc_lookahead=60 / rc=crf / mbtree=0 / crf=15.3000 / qcomp=0.65 / qpmin=0:0:0 / qpmax=69:69:69 / qpstep=4 / vbv_maxrate=62500 / vbv_bufsize=78125 / crf_max=0.0 / nal_hrd=none / filler=0 / ip_ratio=1.30 / pb_ratio=1.20 / aq=3:0.80 / aq-sensitivity=10.00 / aq-factor=1.00:1.00:1.00 / aq2=0 / aq3=0
Язык : English
Default : Да
Forced : Нет
Цветовой диапазон : Limited
Коэффициенты матрицы : BT.709
Аудио #1
Идентификатор : 2
Формат : DTS
Формат/Информация : Digital Theater Systems
Режим : 16
Параметр Endianness формата : Big
Идентификатор кодека : A_DTS
Продолжительность : 1 ч. 34 м.
Вид битрейта : Постоянный
Битрейт : 768 Кбит/сек
Каналы : 6 каналов
Расположение каналов : Front: L C R, Side: L R, LFE
Частота : 48,0 КГц
Битовая глубина : 24 бит
Метод сжатия : С потерями
Размер потока : 519 Мбайт (9%)
Заголовок : DTS 5.1 @ 768 kbps - DUB, Blu-ray EUR
Язык : Russian
Default : Да
Forced : Нет
Аудио #2
Идентификатор : 3
Формат : AC-3
Формат/Информация : Audio Coding 3
Расширение режима : CM (complete main)
Параметр Endianness формата : Big
Идентификатор кодека : A_AC3
Продолжительность : 1 ч. 34 м.
Вид битрейта : Постоянный
Битрейт : 448 Кбит/сек
Каналы : 6 каналов
Расположение каналов : Front: L C R, Side: L R, LFE
Частота : 48,0 КГц
Метод сжатия : С потерями
Размер потока : 303 Мбайт (5%)
Заголовок : AC3 5.1 @ 448 kbps - DUB, Blu-ray EUR
Язык : Ukrainian
Default : Нет
Forced : Нет
Аудио #3
Идентификатор : 4
Формат : DTS
Формат/Информация : Digital Theater Systems
Профиль формата : ES
Режим : 16
Параметр Endianness формата : Big
Идентификатор кодека : A_DTS
Продолжительность : 1 ч. 34 м.
Вид битрейта : Постоянный
Битрейт : 1509 Кбит/сек
Каналы : 6 каналов
Расположение каналов : Front: L C R, Side: L R, LFE
Частота : 48,0 КГц
Битовая глубина : 24 бит
Метод сжатия : С потерями
Задержка видео : 11 мс.
Размер потока : 1020 Мбайт (18%)
Заголовок : DTS-ES 5.1 @ 1536 kbps
Язык : English
Default : Нет
Forced : Нет
Текст #1
Идентификатор : 5
Формат : UTF-8
Идентификатор кодека : S_TEXT/UTF8
Идентификатор кодека/Информация : UTF-8 Plain Text
Заголовок : Forced, iTunes
Язык : Russian
Default : Да
Forced : Нет
Текст #2
Идентификатор : 6
Формат : UTF-8
Идентификатор кодека : S_TEXT/UTF8
Идентификатор кодека/Информация : UTF-8 Plain Text
Заголовок : iTunes
Язык : Russian
Default : Нет
Forced : Нет
Текст #3
Идентификатор : 7
Формат : UTF-8
Идентификатор кодека : S_TEXT/UTF8
Идентификатор кодека/Информация : UTF-8 Plain Text
Заголовок : Forced, iTunes
Язык : Ukrainian
Default : Нет
Forced : Нет
Текст #4
Идентификатор : 8
Формат : UTF-8
Идентификатор кодека : S_TEXT/UTF8
Идентификатор кодека/Информация : UTF-8 Plain Text
Заголовок : iTunes
Язык : Ukrainian
Default : Нет
Forced : Нет
Текст #5
Идентификатор : 9
Формат : UTF-8
Идентификатор кодека : S_TEXT/UTF8
Идентификатор кодека/Информация : UTF-8 Plain Text
Заголовок : iTunes
Язык : English
Default : Нет
Forced : Нет
Меню
00:00:00.000 : en:00:00:00.000
00:03:09.106 : en:00:03:09.106
00:05:24.366 : en:00:05:24.366
00:09:06.087 : en:00:09:06.087
00:13:22.301 : en:00:13:22.301
00:18:05.751 : en:00:18:05.751
00:20:50.583 : en:00:20:50.583
00:23:10.306 : en:00:23:10.306
00:27:29.898 : en:00:27:29.898
00:30:15.981 : en:00:30:15.981
00:32:54.347 : en:00:32:54.347
00:36:13.588 : en:00:36:13.588
00:39:33.454 : en:00:39:33.454
00:42:58.701 : en:00:42:58.701
00:47:35.019 : en:00:47:35.019
00:51:11.735 : en:00:51:11.735
00:55:50.764 : en:00:55:50.764
01:01:09.457 : en:01:01:09.457
01:05:06.402 : en:01:05:06.402
01:09:39.300 : en:01:09:39.300
01:14:36.889 : en:01:14:36.889
01:17:41.532 : en:01:17:41.532
01:21:43.065 : en:01:21:43.065
01:24:46.498 : en:01:24:46.498



   Похожие торренты   Торрент   Размер 
В этой теме нет новых непрочитанных сообщений. Ледниковый период: Столкновение неизбежно / Ice Age: Collision Course (2016) BDRip 720p от ExKinoRay | Лицензия

15 | 3

5.05 ГБ

В этой теме нет новых непрочитанных сообщений. Ледниковый период: Столкновение неизбежно / Ice Age: Collision Course (2016) BDRip 720p от HELLYWOOD | Лицензия

168 | 39

4.46 ГБ

В этой теме нет новых непрочитанных сообщений. Ледниковый период: Столкновение неизбежно / Ice Age: Collision Course (2016) BDRip-AVC от ExKinoRay | Лицензия

324 | 17

2.37 ГБ

В этой теме нет новых непрочитанных сообщений. Ледниковый период: Столкновение неизбежно / Ice Age: Collision Course (2016) BDRip-AVC от HELLYWOOD | Лицензия

442 | 67

2.18 ГБ

В этой теме нет новых непрочитанных сообщений. Ледниковый период: Столкновение неизбежно / Ice Age: Collision Course (2016) BDRip от HQCLUB | Лицензия

649 | 33

1.45 ГБ

В этой теме нет новых непрочитанных сообщений. Ледниковый период: Столкновение неизбежно / Ice Age: Collision Course (2016) BDRip от GeneralFilm | Лицензия

391 | 43

1.45 ГБ

В этой теме нет новых непрочитанных сообщений. Ледниковый период: Столкновение неизбежно / Ice Age: Collision Course (2016) BDRip от MegaPeer | Лицензия

208 | 27

1.46 ГБ




Вы не можете начинать темы
Вы не можете отвечать на сообщения
Вы не можете редактировать свои сообщения
Вы не можете удалять свои сообщения
Вы не можете добавлять вложения

Перейти:  
Для Мосгорсуда, Роскомнадзора и рекламодателей: mosgorsud-torrent[собачка]yandex.ru
Настройки
ppkBB3cker v.2 © 2008-2014 @ PPK
[ Time : 0.013s | 15 Queries | GZIP : Off ]
CGP [Extreme] output time : 0.00014s | 0 Queries | GZIP : Off

Торрент трекер RUTOR.IN, Не можете зайти на rutor.org? Какой новый адрес рутор? Какое зеркало рутор? Не работает rutor.org и зеркала? Тогда наш торрент специально для вас. Rutor.in неофициальное зеркало rutor. В случае если у Вас заблокирован rutor или вдруг Вы не можете на него зайти, то Вы без труда сможете скачать бесплатно и без рекламы последние новинки кино, игр, сериалов и прочего у нас, на Rutor.in. Не нужно использовать прокси, чтобы зайти на рутор, достаточно воспользоваться нашим ресурсом. Все новые фильмы, игры, сериалы, книги и музыка за 2013 и 2014 годы через торрент бесплатно. Скачивайте фильмы в хорошем качестве, игры для пк, xbox, playstation без регистрации. У нас вы найдете новые Зарубежные сериалы и Русские сериалы 2013, 2014, 2015 годов. Оставайтесь с нами, качайте любимые фильмы, игры, сериалы, книги и музыку.