img image001 image001 image001 image001 image001 image001 image001 image001 image001 image001 image001 image001 image001 image001 image001

Planets Sun Sun Sun
Статистика раздачи
Автор: PriZraK | Размер: 171.32 МБ | Добавлен: 05 ноя 2016
Раздают: 17    Качают: 0
Скачать торрент
Скачать торрент
Описание торрента

СообщениеДобавлено: 05 ноя 2016 


Информация о фильме
Название: Песочник
Оригинальное название: Piper
Год выхода: 2016
Жанр: Мультфильм, семейный, короткометражный
Режиссер: Алан Барилларо
В ролях: iper
О фильме:
Стая представителей бекасовых охотится за едой у побережья, бросаясь клевать на песок, когда волна уходит, а когда наступает, они убегают. Одна маленькая представительца семейства бекасовых так воодушевлена своей мамой, что решается присоединиться к стае, но ей не удалось вовремя отступить, поэтому она полностью промокла от волны. Происшествие оставляет её запуганной водой; она отказывается покидать гнездышко, но скоро замечает группу раков-отшельников, закапывающихся в песок в поиске еды, оставаясь защищенными от волн. Копируя их поведение, птичка узрела красоту подводного мира и стала умелой в поиске еды для стаи.
Выпущен вместе с полнометражным мультфильмом «В поисках Дори» 16 июня в 2016 году.

Страна: США
Студия: Pixar Animation Studios, Walt Disney Pictures
Продолжительность: 00:06:05
Перевод: Не требуется
Файл
Кодек: x264
Качество: BDRip 720p
Видео: MPEG-4 AVC, 3300 Кбит/с, 1280x720, 23.976 кадр/с
Звук: AC3, 6 ch, 640 Кбит/с
Общее
Уникальный идентификатор : 220431982577049247429880625495420233798 (0xA5D5A7D50BD9EBA1A1F54C1C72A0E846)
Полное имя : Piper.2016.BDRip.720p.mkv
Формат : Matroska
Версия формата : Version 4 / Version 2
Размер файла : 171 Мбайт
Продолжительность : 6 м. 5 с.
Общий поток : 3929 Кбит/сек
Название фильма : Piper by Koenig
Дата кодирования : UTC 2016-11-04 07:06:12
Программа кодирования : mkvmerge v9.2.0 ('Photograph') 32bit
Библиотека кодирования : libebml v1.3.3 + libmatroska v1.4.4
Обложка : Yes
Attachments : cover.jpg
Видео
Идентификатор : 1
Формат : AVC
Формат/Информация : Advanced Video Codec
Профиль формата : High@L4.1
Параметр CABAC формата : Да
Параметр ReFrames формата : 9 кадров
Идентификатор кодека : V_MPEG4/ISO/AVC
Продолжительность : 6 м. 5 с.
Битрейт : 3299 Кбит/сек
Ширина : 1280 пикселей
Высота : 720 пикселей
Соотношение сторон : 16:9
Режим частоты кадров : Постоянный
Частота кадров : 23,976 (24000/1001) кадра/сек
Цветовое пространство : YUV
Субдискретизация насыщенности : 4:2:0
Битовая глубина : 8 бит
Тип развёртки : Прогрессивная
Бит/(Пиксели*Кадры) : 0.149
Размер потока : 143 Мбайт (84%)
Заголовок : Piper
Библиотека кодирования : x264 core 148 r2692 64f4e24
Настройки программы : cabac=1 / ref=9 / deblock=1:0:0 / analyse=0x3:0x133 / me=umh / subme=10 / psy=1 / psy_rd=1.00:0.05 / mixed_ref=1 / me_range=32 / chroma_me=1 / trellis=2 / 8x8dct=1 / cqm=0 / deadzone=21,11 / fast_pskip=1 / chroma_qp_offset=-3 / threads=3 / lookahead_threads=1 / sliced_threads=0 / nr=0 / decimate=1 / interlaced=0 / bluray_compat=0 / constrained_intra=0 / bframes=12 / b_pyramid=2 / b_adapt=2 / b_bias=0 / direct=3 / weightb=1 / open_gop=0 / weightp=2 / keyint=240 / keyint_min=23 / scenecut=40 / intra_refresh=0 / rc_lookahead=40 / rc=2pass / mbtree=1 / bitrate=3299 / ratetol=1.0 / qcomp=0.60 / qpmin=0 / qpmax=51 / qpstep=4 / cplxblur=20.0 / qblur=0.5 / vbv_maxrate=50000 / vbv_bufsize=62500 / nal_hrd=none / filler=0 / ip_ratio=1.40 / aq=1:1.00
Default : Да
Forced : Нет
Аудио
Идентификатор : 2
Формат : AC-3
Формат/Информация : Audio Coding 3
Расширение режима : CM (complete main)
Параметр Endianness формата : Big
Идентификатор кодека : A_AC3
Продолжительность : 6 м. 5 с.
Вид битрейта : Постоянный
Битрейт : 640 Кбит/сек
Каналы : 6 каналов
Расположение каналов : Front: L C R, Side: L R, LFE
Частота : 48,0 КГц
Частота кадров : 31,250 кадров/сек (1536 spf)
Метод сжатия : С потерями
Размер потока : 27,9 Мбайт (16%)
Default : Да
Forced : Нет
Меню
00:00:00.000 : en:Chapter 1
00:01:34.845 : en:Chapter 2
00:02:10.339 : en:Chapter 3
00:04:02.033 : en:Chapter 4
00:05:16.066 : en:Chapter 5



   Похожие торренты   Торрент   Размер 
В этой теме нет новых непрочитанных сообщений. Песочник / Piper (2016) BDRip от Koenig

29 | 0

98.4 МБ

В этой теме нет новых непрочитанных сообщений. Песочник / Piper (2016) BDRip 1080p

174 | 1

210.48 МБ

В этой теме нет новых непрочитанных сообщений. Песочник / Piper (2016) HDRip от ImperiaFilm

23 | 0

45.27 МБ

В этой теме нет новых непрочитанных сообщений. Pink Floyd - The Piper at the Gates of Dawn [Mastered from the Original Master Tapes] (2016) WavPack

3 | 0

2.39 ГБ

В этой теме нет новых непрочитанных сообщений. Небольшое ДТП / Fender Bender (2016) BDRip 720p от Koenig | L1

6 | 1

4.61 ГБ

В этой теме нет новых непрочитанных сообщений. Добро пожаловать к Хартманнам / Willkommen bei den Hartmanns (2016) BDRip 720p от Koenig | L

4 | 0

1.87 ГБ

В этой теме нет новых непрочитанных сообщений. Как ни странно. Крысолов / Oddly Enough: Pied Piper (2011) PC

52 | 4

152.04 МБ




Вы не можете начинать темы
Вы не можете отвечать на сообщения
Вы не можете редактировать свои сообщения
Вы не можете удалять свои сообщения
Вы не можете добавлять вложения

Перейти:  
Для Мосгорсуда, Роскомнадзора и рекламодателей: mosgorsud-torrent[собачка]yandex.ru
 Вход
ppkBB3cker v.2 © 2008-2014 @ PPK
[ Time : 0.039s | 15 Queries | GZIP : Off ]

cron