img image001 image001 image001 image001 image001 image001 image001 image001 image001 image001 image001 image001 image001 image001 image001

Planets Sun Sun Sun
Статистика раздачи
Автор: PriZraK | Размер: 5.28 ГБ | Добавлен: 05 ноя 2016
Раздают: 156    Качают: 9
Скачать торрент
Скачать торрент
Описание торрента

СообщениеДобавлено: 05 ноя 2016 


Информация о фильме
Название: Полный расколбас
Оригинальное название: Sausage Party
Год выпуска: 2016
Жанр: Мультфильм для взрослых, фэнтези, комедия, приключения, полнометражный
Выпущено: США, Annapurna Pictures, Columbia Pictures, Nitrogen Studios Canada, Point Grey Pictures
Режиссер: Грег Тирнан, Конрад Вернон
В ролях: Алистэр Эбелл, Айрис Апатоу, Стефани Бирд, Майкл Сера, Йен Джеймс Корлетт, Майкл Дэйнджерфилд, Брайан Добсон, Майкл Добсон, Джеймс Франко, Билл Хейдер
О фильме: Не секрет, что вся вселенная - это гигантский супермаркет. Ничего не подозревающие продукты попадают в неизвестный им мир. Они думают что здесь можно отдохнуть и поразвлечься. Но в итоге оказывается что их всех заманили сюда чтобы съесть... Первая анимационная комедия для взрослых о невероятных приключениях еды из супермаркета. Съедобным друзьям предстоит получить ответ на главный вопрос: есть ли жизнь за стенами супермаркета и что же происходит с продуктами после того, как они попадают к людям домой?

Файл
Качество: BDRip (1080p)
Видео: MPEG-4 AVC, 6358 Кбит/с, 1920x1040, 23.976 кадр/с
Аудио: Русский (AC3, 6 ch, 640 Кбит/с), английский (DTS, 6 ch, 1509 Кбит/с)
Размер: 5.28 ГБ
Продолжительность: 01:28:45
Перевод: Дублированный
Субтитры: Русские, английские
Сохранены оригинальные чаптеры.
Озвучивание - Дублированное (Лицензия)
x264 [info]: frame I:956 Avg QP:14.52 size:162411
x264 [info]: frame P:39113 Avg QP:17.98 size: 55201
x264 [info]: frame B:87611 Avg QP:19.20 size: 22932
x264 [info]: consecutive B-frames: 7.7% 7.8% 10.5% 45.8% 9.4% 12.6% 3.3% 2.5% 0.2% 0.1% 0.1%
x264 [info]: mb I I16..4: 26.7% 34.1% 39.2%
x264 [info]: mb P I16..4: 13.6% 19.1% 8.1% P16..4: 28.5% 17.5% 3.3% 0.6% 0.0% skip: 9.3%
x264 [info]: mb B I16..4: 3.8% 3.6% 1.2% B16..8: 28.7% 13.2% 1.5% direct: 4.0% skip:43.9% L0:44.3% L1:44.4% BI:11.3%
x264 [info]: 8x8 transform intra:44.7% inter:40.8%
x264 [info]: direct mvs spatial:96.2% temporal:3.8%
x264 [info]: coded y,uvDC,uvAC intra: 62.9% 53.1% 23.1% inter: 17.5% 12.7% 3.6%
x264 [info]: i16 v,h,dc,p: 16% 15% 28% 41%
x264 [info]: i8 v,h,dc,ddl,ddr,vr,hd,vl,hu: 20% 18% 26% 5% 6% 6% 6% 6% 7%
x264 [info]: i4 v,h,dc,ddl,ddr,vr,hd,vl,hu: 20% 15% 45% 3% 5% 4% 4% 3% 3%
x264 [info]: i8c dc,h,v,p: 17% 43% 22% 18%
x264 [info]: Weighted P-Frames: Y:2.9% UV:1.7%
x264 [info]: ref P L0: 57.4% 7.8% 23.5% 9.6% 1.8% 0.0%
x264 [info]: ref B L0: 86.5% 10.8% 2.7%
x264 [info]: ref B L1: 93.5% 6.5%
x264 [info]: kb/s:6494.87

Общее
Уникальный идентификатор : 172789952700699521050652404779877095121 (0x81FE226802554EF587BD8C8A927F56D1)
Полное имя : D:ЗагрузкиSausage.Party.2016.x264.BDRip.(1080p).ExKinoRay.mkv
Формат : Matroska
Версия формата : Version 2
Размер файла : 5,28 Гбайт
Продолжительность : 1 ч. 28 м.
Общий поток : 8510 Кбит/сек
Название фильма : Полный расколбас.2016.Rip by: ollan
Дата кодирования : UTC 2016-11-04 15:14:11
Программа кодирования : mkvmerge v5.6.0 ('Kenya Kane') built on May 27 2012 16:44:04
Библиотека кодирования : libebml v1.2.3 + libmatroska v1.3.0
Attachements : Cover - Sausage.Party.png
Видео
Идентификатор : 1
Формат : AVC
Формат/Информация : Advanced Video Codec
Профиль формата : High@L4.1
Параметр CABAC формата : Да
Параметр ReFrames формата : 4 кадра
Идентификатор кодека : V_MPEG4/ISO/AVC
Продолжительность : 1 ч. 28 м.
Битрейт : 6358 Кбит/сек
Ширина : 1920 пикселей
Высота : 1040 пикселей
Соотношение сторон : 1,85:1
Режим частоты кадров : Постоянный
Частота кадров : 23,976 (24000/1001) кадра/сек
Цветовое пространство : YUV
Субдискретизация насыщенности : 4:2:0
Битовая глубина : 8 бит
Тип развёртки : Прогрессивная
Бит/(Пиксели*Кадры) : 0.133
Размер потока : 3,84 Гбайт (73%)
Библиотека кодирования : x264 core 146 r2538 121396c
Настройки программы : cabac=1 / ref=4 / deblock=1:-3:-3 / analyse=0x3:0x133 / me=umh / subme=11 / psy=1 / psy_rd=0.01:0.03 / mixed_ref=1 / me_range=48 / chroma_me=1 / trellis=2 / 8x8dct=1 / cqm=0 / deadzone=21,11 / fast_pskip=0 / chroma_qp_offset=-2 / threads=12 / lookahead_threads=3 / sliced_threads=0 / nr=0 / decimate=0 / interlaced=0 / bluray_compat=0 / constrained_intra=0 / bframes=10 / b_pyramid=2 / b_adapt=2 / b_bias=0 / direct=3 / weightb=1 / open_gop=0 / weightp=2 / keyint=240 / keyint_min=23 / scenecut=40 / intra_refresh=0 / rc_lookahead=60 / rc=2pass / mbtree=1 / bitrate=6358 / ratetol=1.0 / qcomp=0.60 / qpmin=0 / qpmax=69 / qpstep=4 / cplxblur=20.0 / qblur=0.5 / vbv_maxrate=50000 / vbv_bufsize=62500 / nal_hrd=none / filler=0 / ip_ratio=1.40 / aq=1:1.00
Язык : English
Default : Да
Forced : Нет
Аудио #1
Идентификатор : 2
Формат : AC-3
Формат/Информация : Audio Coding 3
Расширение режима : CM (complete main)
Параметр Endianness формата : Big
Идентификатор кодека : A_AC3
Продолжительность : 1 ч. 28 м.
Вид битрейта : Постоянный
Битрейт : 640 Кбит/сек
Каналы : 6 каналов
Расположение каналов : Front: L C R, Side: L R, LFE
Частота : 48,0 КГц
Частота кадров : 31,250 кадров/сек (1536 spf)
Метод сжатия : С потерями
Размер потока : 406 Мбайт (8%)
Заголовок : Дублированный (Лицензия)
Язык : Russian
Default : Да
Forced : Нет
Аудио #2
Идентификатор : 3
Формат : DTS
Формат/Информация : Digital Theater Systems
Режим : 16
Параметр Endianness формата : Big
Идентификатор кодека : A_DTS
Продолжительность : 1 ч. 28 м.
Вид битрейта : Постоянный
Битрейт : 1509 Кбит/сек
Каналы : 6 каналов
Расположение каналов : Front: L C R, Side: L R, LFE
Частота : 48,0 КГц
Частота кадров : 93,750 кадра/сек (512 spf)
Битовая глубина : 16 бит
Метод сжатия : С потерями
Размер потока : 958 Мбайт (18%)
Язык : English
Default : Нет
Forced : Нет
Текст #1
Идентификатор : 4
Формат : UTF-8
Идентификатор кодека : S_TEXT/UTF8
Идентификатор кодека/Информация : UTF-8 Plain Text
Заголовок : Forced
Язык : Russian
Default : Да
Forced : Нет
Текст #2
Идентификатор : 5
Формат : UTF-8
Идентификатор кодека : S_TEXT/UTF8
Идентификатор кодека/Информация : UTF-8 Plain Text
Заголовок : Full
Язык : Russian
Default : Нет
Forced : Нет
Текст #3
Идентификатор : 6
Формат : UTF-8
Идентификатор кодека : S_TEXT/UTF8
Идентификатор кодека/Информация : UTF-8 Plain Text
Заголовок : Full
Язык : English
Default : Нет
Forced : Нет
Меню
00:00:00.000 : en:Chapter 01
00:04:24.264 : en:Chapter 02
00:10:19.118 : en:Chapter 03
00:15:27.842 : en:Chapter 04
00:19:32.171 : en:Chapter 05
00:24:53.700 : en:Chapter 06
00:29:32.936 : en:Chapter 07
00:35:44.140 : en:Chapter 08
00:41:55.261 : en:Chapter 09
00:48:18.518 : en:Chapter 10
00:54:45.907 : en:Chapter 11
00:59:54.506 : en:Chapter 12
01:03:47.072 : en:Chapter 13
01:08:01.284 : en:Chapter 14
01:11:55.810 : en:Chapter 15
01:16:03.809 : en:Chapter 16





Релиз от: Rip by:



   Похожие торренты   Торрент   Размер 
В этой теме нет новых непрочитанных сообщений. Полный расколбас / Sausage Party (2016) BDRip-AVC от ExKinoRay | Лицензия

426 | 15

1.72 ГБ

В этой теме нет новых непрочитанных сообщений. Полный расколбас / Sausage Party (2016) BDRip 1080p от ExKinoRay | iTunes

215 | 259

9.88 ГБ

В этой теме нет новых непрочитанных сообщений. Полный расколбас / Sausage Party (2016) BDRip 1080p | Лицензия

839 | 131

7.33 ГБ

В этой теме нет новых непрочитанных сообщений. Полный расколбас / Sausage Party (2016) BDRemux 1080p от ExKinoRay | iTunes

97 | 43

17.3 ГБ

В этой теме нет новых непрочитанных сообщений. Полный расколбас / Sausage Party (2016) BDRemux 1080p от ExKinoRay | iTunes

46 | 63

17.14 ГБ

В этой теме нет новых непрочитанных сообщений. Полный расколбас / Sausage Party (2016) Blu-Ray CEE 1080p | Лицензия

43 | 19

26.68 ГБ

В этой теме нет новых непрочитанных сообщений. Полный расколбас / Sausage Party (2016) BDRip от ExKinoRay | iTunes

49 | 4

1.46 ГБ




Вы не можете начинать темы
Вы не можете отвечать на сообщения
Вы не можете редактировать свои сообщения
Вы не можете удалять свои сообщения
Вы не можете добавлять вложения

Перейти:  
Для Мосгорсуда, Роскомнадзора и рекламодателей: mosgorsud-torrent[собачка]yandex.ru
 Вход
ppkBB3cker v.2 © 2008-2014 @ PPK
[ Time : 0.022s | 13 Queries | GZIP : Off ]
CGP output time : 0.039s | 5 Queries | GZIP : Off

Торрент трекер RUTOR.IN, Не можете зайти на rutor.org? Какой новый адрес рутор? Какое зеркало рутор? Не работает rutor.org и зеркала? Тогда наш торрент специально для вас. Rutor.in неофициальное зеркало rutor. В случае если у Вас заблокирован rutor или вдруг Вы не можете на него зайти, то Вы без труда сможете скачать бесплатно и без рекламы последние новинки кино, игр, сериалов и прочего у нас, на Rutor.in. Не нужно использовать прокси, чтобы зайти на рутор, достаточно воспользоваться нашим ресурсом. Все новые фильмы, игры, сериалы, книги и музыка за 2013 и 2014 годы через торрент бесплатно. Скачивайте фильмы в хорошем качестве, игры для пк, xbox, playstation без регистрации. У нас вы найдете новые Зарубежные сериалы и Русские сериалы 2013, 2014, 2015 годов. Оставайтесь с нами, качайте любимые фильмы, игры, сериалы, книги и музыку.