img image001 image001 image001 image001 image001 image001 image001 image001 image001 image001 image001 image001 image001 image001 image001

Planets Sun Sun Sun
Статистика раздачи
Автор: PriZraK | Размер: 2.27 ГБ | Добавлен: 06 ноя 2016
Раздают: 40    Качают: 4
Скачать торрент
Скачать торрент
Описание торрента

СообщениеДобавлено: 06 ноя 2016 


Информация о фильме
Название: Ледниковый период: Столкновение неизбежно
Оригинальное название: Ice Age: Collision Course
Год выхода: 2016
Жанр: Мультфильм, комедия, семейный
Режиссер: Майк Тёрмайер, Гален Т. Чу
В ролях: Ник Офферман, Адам Дивайн, Саймон Пегг, Дженнифер Лопез, Мелисса Рауш, Стефани Беатриз, Джон Легуизамо, Макс Гринфилд, Шонн Уильям Скотт, Дэнис Лири
О фильме:
Отчаянная погоня за неуловимым желудем катапультирует Скрата прямо в космос, где он случайно запускает целую серию космических событий. Именно они изменят весь мир Ледникового периода и станут реальной угрозой для него. Чтобы спастись, Сид, Мэнни, Диего и остальные звери должны покинуть свои дома, отправиться в забавное и захватывающее приключение в экзотические новые земли и встретиться со множеством красочных новых персонажей.

Страна: США
Студия: 20th Century Fox Animation, Blue Sky Studios
Продолжительность: 01:35:05
Перевод: Дублированный
Файл
Кодек: H.265
Качество: BDRip HEVC-10bit 720р от SuperMin
Видео: 1280x536 (2.40:1), 2347 kbps, 23.976 fps
Звук:
Русский (AC3, 6 ch, 448 Кбит/с)
Английский (AC3, 6 ch, 640 Кбит/с)
Субтитры: Русские, английские
x265 [info]: frame I: 1237, Avg QP:20.14 kb/s: 15699.19
x265 [info]: frame P: 33626, Avg QP:20.48 kb/s: 4627.42
x265 [info]: frame B: 101148, Avg QP:22.86 kb/s: 1424.85
x265 [info]: global : 136011, Avg QP:22.25 kb/s: 2346.44
x265 [info]: consecutive B-frames: 9.0% 6.0% 7.9% 54.5% 11.7% 8.2% 1.2% 1.0% 0.2%
x265 [total]: encoded 136011 frames in 45999.40s (2.96 fps), 2346.44 kb/s
General
Unique ID : 215179816675741395624082710425111998450 (0xA1E2200F7D67F7858BD7346CC5A5AFF2)
Complete name : G:HEVCЛедниковый.период.Столкновение.неизбежно.2016.x265.BDRip.HEVC-10bit.720p.DUB.mkv
Format : Matroska
Format version : Version 4 / Version 2
File size : 2.27 GiB
Duration : 1 h 34 min
Overall bit rate : 3 437 kb/s
Movie name : Ледниковый период. Столкновение неизбежно (2016) - #LORDKILL#
Encoded date : UTC 2016-11-05 04:08:04
Writing application : mkvmerge v8.0.0 ('Til The Day That I Die') 64bit
Writing library : libebml v1.3.1 + libmatroska v1.4.2
Video
ID : 1
Format : HEVC
Format/Info : High Efficiency Video Coding
Codec ID : V_MPEGH/ISO/HEVC
Duration : 1 h 34 min
Bit rate : 2 347 kb/s
Width : 1 280 pixels
Height : 536 pixels
Display aspect ratio : 2.40:1
Frame rate mode : Constant
Frame rate : 23.976 (24000/1001) FPS
Color space : YUV
Chroma subsampling : 4:2:0
Bit depth : 10 bits
Bits/(Pixel*Frame) : 0.143
Stream size : 1.55 GiB (68%)
Writing library : x265 1.5+88-0e89af0781ee:[Windows][GCC 4.8.2][64 bit] 16bpp
Encoding settings : wpp / ctu=64 / min-cu-size=8 / max-tu-size=32 / tu-intra-depth=1 / tu-inter-depth=1 / me=2 / subme=5 / merange=96 / no-rect / no-amp / max-merge=2 / temporal-mvp / no-early-skip / rdpenalty=0 / no-tskip / no-tskip-fast / strong-intra-smoothing / no-lossless / no-cu-lossless / no-constrained-intra / no-fast-intra / open-gop / no-temporal-layers / interlace=0 / keyint=240 / min-keyint=23 / scenecut=40 / rc-lookahead=20 / bframes=8 / bframe-bias=0 / b-adapt=2 / ref=7 / weightp / no-weightb / aq-mode=1 / aq-strength=0.30 / cbqpoffs=0 / crqpoffs=0 / rd=3 / psy-rd=0.50 / psy-rdoq=0.00 / signhide / lft / sao / no-sao-non-deblock / b-pyramid / cutree / rc=crf / crf=20.0 / qcomp=0.80 / qpmin=0 / qpmax=51 / qpstep=4 / vbv-maxrate=12000 / vbv-bufsize=12000 / crf-max=0.0 / ipratio=1.10 / pbratio=1.10
Default : Yes
Forced : No
Audio #1
ID : 2
Format : AC-3
Format/Info : Audio Coding 3
Mode extension : CM (complete main)
Format settings, Endianness : Big
Codec ID : A_AC3
Duration : 1 h 34 min
Bit rate mode : Constant
Bit rate : 448 kb/s
Channel(s) : 6 channels
Channel positions : Front: L C R, Side: L R, LFE
Sampling rate : 48.0 kHz
Frame rate : 31.250 FPS (1536 spf)
Bit depth : 16 bits
Compression mode : Lossy
Stream size : 303 MiB (13%)
Title : Дубляж
Language : Russian
Default : No
Forced : No
Audio #2
ID : 3
Format : AC-3
Format/Info : Audio Coding 3
Mode extension : CM (complete main)
Format settings, Endianness : Big
Codec ID : A_AC3
Duration : 1 h 34 min
Bit rate mode : Constant
Bit rate : 640 kb/s
Channel(s) : 6 channels
Channel positions : Front: L C R, Side: L R, LFE
Sampling rate : 48.0 kHz
Frame rate : 31.250 FPS (1536 spf)
Bit depth : 16 bits
Compression mode : Lossy
Stream size : 432 MiB (19%)
Language : English
Default : Yes
Forced : No
Text #1
ID : 4
Format : UTF-8
Codec ID : S_TEXT/UTF8
Codec ID/Info : UTF-8 Plain Text
Duration : 24 min 51 s
Bit rate : 0 b/s
Count of elements : 2
Stream size : 109 Bytes (0%)
Title : Forced
Language : Russian
Default : Yes
Forced : No
Text #2
ID : 5
Format : UTF-8
Codec ID : S_TEXT/UTF8
Codec ID/Info : UTF-8 Plain Text
Duration : 1 h 23 min
Bit rate : 99 b/s
Count of elements : 1221
Stream size : 61.1 KiB (0%)
Title : Full
Language : Russian
Default : No
Forced : No
Text #3
ID : 6
Format : UTF-8
Codec ID : S_TEXT/UTF8
Codec ID/Info : UTF-8 Plain Text
Duration : 1 h 23 min
Bit rate : 60 b/s
Count of elements : 1221
Stream size : 36.9 KiB (0%)
Title : Full
Language : English
Default : No
Forced : No
Menu
00:00:00.000 : en:00:00:00.000
00:03:09.106 : en:00:03:09.106
00:05:24.366 : en:00:05:24.366
00:09:06.087 : en:00:09:06.087
00:13:22.301 : en:00:13:22.301
00:18:05.751 : en:00:18:05.751
00:20:50.583 : en:00:20:50.583
00:23:10.306 : en:00:23:10.306
00:27:29.898 : en:00:27:29.898
00:30:15.981 : en:00:30:15.981
00:32:54.347 : en:00:32:54.347
00:36:13.588 : en:00:36:13.588
00:39:33.454 : en:00:39:33.454
00:42:58.701 : en:00:42:58.701
00:47:35.019 : en:00:47:35.019
00:51:11.735 : en:00:51:11.735
00:55:50.764 : en:00:55:50.764
01:01:09.457 : en:01:01:09.457
01:05:06.402 : en:01:05:06.402
01:09:39.300 : en:01:09:39.300
01:14:36.889 : en:01:14:36.889
01:17:41.532 : en:01:17:41.532
01:21:43.065 : en:01:21:43.065
01:24:46.498 : en:01:24:46.498



   Похожие торренты   Торрент   Размер 
В этой теме нет новых непрочитанных сообщений. Ледниковый период: Столкновение неизбежно / Ice Age: Collision Course (2016) BDRip-AVC от ExKinoRay | Лицензия

110 | 7

2.37 ГБ

В этой теме нет новых непрочитанных сообщений. Ледниковый период: Столкновение неизбежно / Ice Age: Collision Course (2016) BDRip от GeneralFilm | Лицензия

150 | 7

1.45 ГБ

В этой теме нет новых непрочитанных сообщений. Ледниковый период: Столкновение неизбежно / Ice Age: Collision Course (2016) BDRip от HQCLUB | Лицензия

752 | 12

1.45 ГБ

В этой теме нет новых непрочитанных сообщений. Ледниковый период: Столкновение неизбежно / Ice Age: Collision Course (2016) BDRip от MegaPeer | Лицензия

227 | 19

1.46 ГБ

В этой теме нет новых непрочитанных сообщений. Ледниковый период: Столкновение неизбежно / Ice Age: Collision Course (2016) BDRip 1080p | Лицензия

75 | 16

8.76 ГБ

В этой теме нет новых непрочитанных сообщений. Ледниковый период: Столкновение неизбежно / Ice Age: Collision Course (2016) BDRip 720p | Лицензия

83 | 18

5.59 ГБ

В этой теме нет новых непрочитанных сообщений. Ледниковый период: Столкновение неизбежно / Ice Age: Collision Course (2016) BDRip-AVC от HELLYWOOD | Лицензия

38 | 11

1.46 ГБ




Вы не можете начинать темы
Вы не можете отвечать на сообщения
Вы не можете редактировать свои сообщения
Вы не можете удалять свои сообщения
Вы не можете добавлять вложения

Перейти:  
Для Мосгорсуда, Роскомнадзора и рекламодателей: mosgorsud-torrent[собачка]yandex.ru
 Вход
ppkBB3cker v.2 © 2008-2014 @ PPK
[ Time : 0.045s | 16 Queries | GZIP : Off ]

Торрент трекер RUTOR.IN, Не можете зайти на rutor.org? Какой новый адрес рутор? Какое зеркало рутор? Не работает rutor.org и зеркала? Тогда наш торрент специально для вас. Rutor.in неофициальное зеркало rutor. В случае если у Вас заблокирован rutor или вдруг Вы не можете на него зайти, то Вы без труда сможете скачать бесплатно и без рекламы последние новинки кино, игр, сериалов и прочего у нас, на Rutor.in. Не нужно использовать прокси, чтобы зайти на рутор, достаточно воспользоваться нашим ресурсом. Все новые фильмы, игры, сериалы, книги и музыка за 2013 и 2014 годы через торрент бесплатно. Скачивайте фильмы в хорошем качестве, игры для пк, xbox, playstation без регистрации. У нас вы найдете новые Зарубежные сериалы и Русские сериалы 2013, 2014, 2015 годов. Оставайтесь с нами, качайте любимые фильмы, игры, сериалы, книги и музыку.
cron