img image001 image001 image001 image001 image001 image001 image001 image001 image001 image001 image001 image001 image001 image001 image001

Planets Sun Sun Sun
Статистика раздачи
Автор: PriZraK | Размер: 10.08 ГБ | Добавлен: 10 ноя 2016
Раздают: 7    Качают: 4
Скачать торрент
Скачать торрент
Описание торрента

СообщениеДобавлено: 10 ноя 2016 

Информация о фильме
Название: Октонавты
Оригинальное название: The Octonauts
Год выхода: 2010-2011
Страна: США, Ирландия, Великобритания
Жанр: Мультсериал, детский, обучающий, познавательный
Продолжительность: 52 х ~ 00:12:00
Перевод: Профессиональный дублированный
Режиссеры: Дарра О’Коннелл
Роли озвучивали: Кристин Борге, Росс Брин, Тереза Галлахер, Саймон Гринхолл, Mona Grenne, Эйрик Е. Джонсен, Луна Софи Крус, Майкл Мерфи, Бьорн Алекс Олсен, ...
Роли дублировали: Лариса Некипелова, Николай Быстров, Прохор Чеховской, Даниил Эльдаров, Ольга Сирина
О фильме: Октонавты — это динамичная команда из восьми смелых исследователей морских глубин, которые живут на подводной базе — Октопод с разнообразным флотом водных машин. Экипаж Октонавтов всякий раз спешит на помощь, как только в подводном пространстве случаются неприятности. В перерывах между борьбой с опасностями смелая восьмерка встречается с водными обитателями и познает тайные уголки морских глубин.
Сезон 1 (4 октября 2010 - 1 декабря 2011)

01. Акула кит
02. Подводный шторм
03. Краб и морской ёж
04. Вожак моржей
05. Летучие рыбы
06. Гигантский кальмар
07. Косатки
08. Бегство от водорослей
09. Ремипедии
10. Быстрая рыба-парусник
11. Братья Капли
12. Карта чудовищ
13. Потерявшаяся морская звезда
14. Кит-горбач альбинос
15. Заросли водорослей
16. Враждебные Актинии
17. Кит-нарвал
18. Полуночная зона
19. Рак-щелкун
20. Морской огурец
21. Водоворот
22. Рак-отшельник
23. Запутавшиеся киты
24. Спасение леса водорослей
25. Краб декоратор
26. Киты-белухи
27. Голодная рыба-лоцман
28. Кальмар-вампир
29. История с морскими коньками
30. Гребневик-гигант
31. Светящиеся акулы
32. Ремень-рыба
33. Рыба-собачка
34. Скопление медуз
35. Дельфинёнок
36. Страшный Опистопрокт
37. Касатки в Арктике
38. Миксины
39. Огромный морской слон
40. Стая сардин
41. Спасение острова дельфинами
42. Отважные угри
43. Морские игуаны
44. Карликовая акула-фонарь
45. Рыба-попугай
46. Электрические скаты
47. Каракатица
48. Жёлтая акула
49. Углохвостый Спинорог
50. Краб-паук
51. Приключения в Марианском Жёлобе
52. Большое рождественское спасение



Доп. информация:
Семпл


Файл
Формат: MP4
Качество: WEB-DLRip 1080p
Видео: MPEG4-AVC, High@L4, 1920x1080 (16:9), ~ 2 277 Kbps, 25.000 fps
Звук: 48.0 KHz, AAC 2.0, 192 Kbps
Субтитры: нет
15. Заросли водорослей. Full-HD-merci-.mp4
Формат : MPEG-4
Профиль формата : Base Media
Идентификатор кодека : isom (isom)
Размер файла : 212 Мбайт
Продолжительность : 11 м.
Режим общего битрейта : Переменный
Общий поток : 2473 Кбит/сек
Дата кодирования : UTC 2016-11-05 14:29:34
Дата пометки : UTC 2016-11-05 14:29:34
Программа кодирования : My MP4Box GUI 0.6.0.6
Видео
Идентификатор : 1
Формат : AVC
Формат/Информация : Advanced Video Codec
Профиль формата : High@L4
Параметр CABAC формата : Да
Параметр ReFrames формата : 3 кадра
Идентификатор кодека : avc1
Идентификатор кодека/Информация : Advanced Video Coding
Продолжительность : 11 м.
Битрейт : 2277 Кбит/сек
Максимальный битрейт : 5638 Кбит/сек
Ширина : 1920 пикселей
Высота : 1080 пикселей
Соотношение сторон : 16:9
Режим частоты кадров : Постоянный
Частота кадров : 25,000 кадров/сек
Цветовое пространство : YUV
Субдискретизация насыщенности : 4:2:0
Битовая глубина : 8 бит
Тип развёртки : Прогрессивная
Бит/(Пиксели*Кадры) : 0.044
Размер потока : 195 Мбайт (92%)
Заголовок : 19-1080.mp4
Дата кодирования : UTC 2015-12-10 11:12:58
Дата пометки : UTC 2016-11-05 14:29:41
Цветовой диапазон : Limited
Основные цвета : BT.709
Характеристики трансфера : BT.709
Коэффициенты матрицы : BT.709
Аудио
Идентификатор : 2
Формат : AAC
Формат/Информация : Advanced Audio Codec
Профиль формата : LC
Идентификатор кодека : 40
Продолжительность : 11 м.
Вид битрейта : Переменный
Битрейт : 192 Кбит/сек
Максимальный битрейт : 208 Кбит/сек
Каналы : 2 канала
Расположение каналов : Front: L R
Частота : 48,0 КГц
Частота кадров : 46,875 кадров/сек (1024 spf)
Метод сжатия : С потерями
Размер потока : 16,5 Мбайт (8%)
Заголовок : 19.m4a
Дата кодирования : UTC 2016-11-05 14:29:41
Дата пометки : UTC 2016-11-05 14:29:41


Релиз от:
Автор релиза: /



   Похожие торренты   Торрент   Размер 
В этой теме нет новых непрочитанных сообщений. Октонавты / The Octonauts [s01] (2010-2011) WEB-DLRip от ExKinoRay | D

6 | 3

8.13 ГБ

В этой теме нет новых непрочитанных сообщений. Октонавты / The Octonauts [s01] (2010-2011) WEB-DLRip 720p от ExKinoRay | D

27 | 12

5.96 ГБ

В этой теме нет новых непрочитанных сообщений. Октонавты / The Octonauts [01x01-27] (2010) WEBRip | D

244 | 45

4.03 ГБ

В этой теме нет новых непрочитанных сообщений. Капсула (2014) WEB-DLRip 1080p от ExKinoRay

160 | 10

1.01 ГБ

В этой теме нет новых непрочитанных сообщений. Джинглики [01-06] (2015) WEB-DLRip 1080p от ExKinoRay

23 | 6

1.55 ГБ

В этой теме нет новых непрочитанных сообщений. Киока / Kioka [01-11] (2015) WEB-DLRip 1080p от ExKinoRay | D

0 | 5

1.43 ГБ

В этой теме нет новых непрочитанных сообщений. Киока / Kioka [01-11] (2015) WEB-DLRip 1080p от ExKinoRay | D

4 | 1

1.11 ГБ




Вы не можете начинать темы
Вы не можете отвечать на сообщения
Вы не можете редактировать свои сообщения
Вы не можете удалять свои сообщения
Вы не можете добавлять вложения

Перейти:  
Для Мосгорсуда, Роскомнадзора и рекламодателей: mosgorsud-torrent[собачка]yandex.ru
 Вход
ppkBB3cker v.2 © 2008-2014 @ PPK
[ Time : 0.035s | 17 Queries | GZIP : On ]

Торрент трекер RUTOR.IN, Не можете зайти на rutor.org? Какой новый адрес рутор? Какое зеркало рутор? Не работает rutor.org и зеркала? Тогда наш торрент специально для вас. Rutor.in неофициальное зеркало rutor. В случае если у Вас заблокирован rutor или вдруг Вы не можете на него зайти, то Вы без труда сможете скачать бесплатно и без рекламы последние новинки кино, игр, сериалов и прочего у нас, на Rutor.in. Не нужно использовать прокси, чтобы зайти на рутор, достаточно воспользоваться нашим ресурсом. Все новые фильмы, игры, сериалы, книги и музыка за 2013 и 2014 годы через торрент бесплатно. Скачивайте фильмы в хорошем качестве, игры для пк, xbox, playstation без регистрации. У нас вы найдете новые Зарубежные сериалы и Русские сериалы 2013, 2014, 2015 годов. Оставайтесь с нами, качайте любимые фильмы, игры, сериалы, книги и музыку.