img image001 image001 image001 image001 image001 image001 image001 image001 image001 image001 image001 image001 image001 image001 image001

Planets Sun Sun Sun
Статистика раздачи
Автор: PriZraK | Размер: 8.13 ГБ | Добавлен: 10 ноя 2016
Раздают: 6    Качают: 3
Скачать торрент
Скачать торрент
Описание торрента

СообщениеДобавлено: 10 ноя 2016 

Информация о фильме
Название: Октонавты
Оригинальное название: The Octonauts
Год выхода: 2010-2011
Страна: США, Ирландия, Великобритания
Жанр: Мультсериал, детский, обучающий, познавательный
Продолжительность: 52 х ~ 00:12:00
Перевод: Профессиональный дублированный
Режиссеры: Дарра О’Коннелл
Роли озвучивали: Кристин Борге, Росс Брин, Тереза Галлахер, Саймон Гринхолл, Mona Grenne, Эйрик Е. Джонсен, Луна Софи Крус, Майкл Мерфи, Бьорн Алекс Олсен, ...
Роли дублировали: Лариса Некипелова, Николай Быстров, Прохор Чеховской, Даниил Эльдаров, Ольга Сирина
О фильме: Октонавты — это динамичная команда из восьми смелых исследователей морских глубин, которые живут на подводной базе — Октопод с разнообразным флотом водных машин. Экипаж Октонавтов всякий раз спешит на помощь, как только в подводном пространстве случаются неприятности. В перерывах между борьбой с опасностями смелая восьмерка встречается с водными обитателями и познает тайные уголки морских глубин.
Сезон 1 (4 октября 2010 - 1 декабря 2011)

01. Акула кит
02. Подводный шторм
03. Краб и морской ёж
04. Вожак моржей
05. Летучие рыбы
06. Гигантский кальмар
07. Косатки
08. Бегство от водорослей
09. Ремипедии
10. Быстрая рыба-парусник
11. Братья Капли
12. Карта чудовищ
13. Потерявшаяся морская звезда
14. Кит-горбач альбинос
15. Заросли водорослей
16. Враждебные Актинии
17. Кит-нарвал
18. Полуночная зона
19. Рак-щелкун
20. Морской огурец
21. Водоворот
22. Рак-отшельник
23. Запутавшиеся киты
24. Спасение леса водорослей
25. Краб декоратор
26. Киты-белухи
27. Голодная рыба-лоцман
28. Кальмар-вампир
29. История с морскими коньками
30. Гребневик-гигант
31. Светящиеся акулы
32. Ремень-рыба
33. Рыба-собачка
34. Скопление медуз
35. Дельфинёнок
36. Страшный Опистопрокт
37. Касатки в Арктике
38. Миксины
39. Огромный морской слон
40. Стая сардин
41. Спасение острова дельфинами
42. Отважные угри
43. Морские игуаны
44. Карликовая акула-фонарь
45. Рыба-попугай
46. Электрические скаты
47. Каракатица
48. Жёлтая акула
49. Углохвостый Спинорог
50. Краб-паук
51. Приключения в Марианском Жёлобе
52. Большое рождественское спасение



Доп. информация:
Семпл


Файл
Формат: AVI
Качество: WEB-DLRip
Видео: 720x400 (1.80:1), 25 fps, XviD build 65 ~1600 kbps avg, 0.22 bit/pixel
Звук: 48 kHz, AC3 Dolby Digital, 2/0 (L,R) ch, ~192.00 kbps avg
Субтитры: нет
07. Косатки. XviD-merci-.avi
Формат : AVI
Формат/Информация : Audio Video Interleave
Размер файла : 155 Мбайт
Продолжительность : 12 м.
Общий поток : 1802 Кбит/сек
Программа кодирования : VirtualDubMod 1.5.10.3 | www.virtualdub-fr.org || (build 2550/release)
Библиотека кодирования : VirtualDubMod build 2550/release
Видео
Идентификатор : 0
Формат : MPEG-4 Visual
Профиль формата : Advanced Simple@L5
Параметр BVOP формата : 1
Параметр QPel формата : Нет
Параметр GMC формата : Без точки перехода
Параметр матрицы формата : Default (MPEG)
Идентификатор кодека : XVID
Идентификатор кодека/Подсказка : XviD
Продолжительность : 12 м.
Битрейт : 1600 Кбит/сек
Ширина : 720 пикселей
Высота : 400 пикселей
Соотношение сторон : 16:9
Частота кадров : 25,000 кадров/сек
Цветовое пространство : YUV
Субдискретизация насыщенности : 4:2:0
Битовая глубина : 8 бит
Тип развёртки : Прогрессивная
Метод сжатия : С потерями
Бит/(Пиксели*Кадры) : 0.222
Размер потока : 137 Мбайт (89%)
Библиотека кодирования : XviD 65
Аудио
Идентификатор : 1
Формат : AC-3
Формат/Информация : Audio Coding 3
Расширение режима : CM (complete main)
Параметр Endianness формата : Big
Идентификатор кодека : 2000
Продолжительность : 12 м.
Вид битрейта : Постоянный
Битрейт : 192 Кбит/сек
Каналы : 2 канала
Расположение каналов : Front: L R
Частота : 48,0 КГц
Частота кадров : 31,250 кадров/сек (1536 spf)
Метод сжатия : С потерями
Размер потока : 16,5 Мбайт (11%)
Выравнивание : Разделение по промежуткам
Продолжительность промежутка : 40 мс. (1,00 видеокадр)
Время предзагрузки промежутка : 500 мс.


Релиз от:
Автор релиза: /



   Похожие торренты   Торрент   Размер 
В этой теме нет новых непрочитанных сообщений. Октонавты / The Octonauts [s01] (2010-2011) WEB-DLRip 720p от ExKinoRay | D

27 | 12

5.96 ГБ

В этой теме нет новых непрочитанных сообщений. Октонавты / The Octonauts [s01] (2010-2011) WEB-DLRip 1080p от ExKinoRay | D

7 | 4

10.08 ГБ

В этой теме нет новых непрочитанных сообщений. Октонавты / The Octonauts [01x01-27] (2010) WEBRip | D

244 | 45

4.03 ГБ

В этой теме нет новых непрочитанных сообщений. Зверюшки-добрюшки [S01-02] (2010) WEB-DLRip 720p от ExKinoRay

21 | 3

529.26 МБ

В этой теме нет новых непрочитанных сообщений. Биение сердца [01-04 из 04] (2011) WEB-DLRip от ExKinoRay

43 | 22

2.19 ГБ

В этой теме нет новых непрочитанных сообщений. Ящик Пандоры [01-04 из 04] (2011) WEB-DLRip-AVC от ExKinoRay

68 | 4

2.93 ГБ

В этой теме нет новых непрочитанных сообщений. ВДВ. Никто, кроме нас! (2011) WEB-DLRip-AVC от ExKinoRay

119 | 12

350.45 МБ




Вы не можете начинать темы
Вы не можете отвечать на сообщения
Вы не можете редактировать свои сообщения
Вы не можете удалять свои сообщения
Вы не можете добавлять вложения

Перейти:  
Для Мосгорсуда, Роскомнадзора и рекламодателей: mosgorsud-torrent[собачка]yandex.ru
 Вход
ppkBB3cker v.2 © 2008-2014 @ PPK
[ Time : 6.595s | 17 Queries | GZIP : On ]

Торрент трекер RUTOR.IN, Не можете зайти на rutor.org? Какой новый адрес рутор? Какое зеркало рутор? Не работает rutor.org и зеркала? Тогда наш торрент специально для вас. Rutor.in неофициальное зеркало rutor. В случае если у Вас заблокирован rutor или вдруг Вы не можете на него зайти, то Вы без труда сможете скачать бесплатно и без рекламы последние новинки кино, игр, сериалов и прочего у нас, на Rutor.in. Не нужно использовать прокси, чтобы зайти на рутор, достаточно воспользоваться нашим ресурсом. Все новые фильмы, игры, сериалы, книги и музыка за 2013 и 2014 годы через торрент бесплатно. Скачивайте фильмы в хорошем качестве, игры для пк, xbox, playstation без регистрации. У нас вы найдете новые Зарубежные сериалы и Русские сериалы 2013, 2014, 2015 годов. Оставайтесь с нами, качайте любимые фильмы, игры, сериалы, книги и музыку.