img image001 image001 image001 image001 image001 image001 image001 image001 image001 image001 image001 image001 image001 image001 image001

Planets Sun Sun Sun
Статистика раздачи
Автор: PriZraK | Размер: 1.55 ГБ | Добавлен: 10 ноя 2016
Раздают: 7    Качают: 0
Скачать торрент
Скачать торрент
Описание торрента

СообщениеДобавлено: 10 ноя 2016 

Информация о фильме
Название: Джинглики
Год выхода: 2015
Страна: Россия, Open Alliance Media
Жанр: Мультсериал, детский
Продолжительность: 6 х ~ 00:11:10
Язык: русский
Режиссеры: Антон Верещагин
Роли озвучивали: Максим Тихонов, Элиза Мартиросова, Сергей Друзьяк, Софья Лебедева, Прохор Чеховской, Василий Аккерман, Наталья Терешкова, Диомид Виноградов, Антон Колесников
О фильме: Далеко-далеко от нас есть прекрасная страна Хэппиленд, где в волшебном городе Джингл-Сити живут маленькие человечки — Джинглики, весёлые и звонкие, словно колокольчики. В забавных приключениях, которые происходят в сказочном мире, без труда прочитываются всем привычные, знакомые и комичные жизненные ситуации.
01. Спорт — лучший друг Бедокура
02. Телохранитель
03. Третий этаж
04. Шеф-повар Бедокур
05. Требуется злодей
06. Пылесос разбушевался



Доп. информация:
Семпл


Файл
Формат: MP4
Качество: WEB-DLRip 1080p
Видео: MPEG4-AVC, High@L4, 1920x1080 (16:9), ~ 2 937 Kbps, 25.000 fps
Звук: 44.1 KHz, AAC-LC 2.0, 192 Kbps
Субтитры: нет
04. Шеф-повар Бедокур. Full-HD-merci-.mp4
Формат : MPEG-4
Профиль формата : Base Media
Идентификатор кодека : isom (isom/mp42)
Размер файла : 253 Мбайт
Продолжительность : 11 м.
Режим общего битрейта : Переменный
Общий поток : 3135 Кбит/сек
Дата кодирования : UTC 2016-10-13 15:39:26
Дата пометки : UTC 2016-10-13 15:39:26
Программа кодирования : My MP4Box GUI 0.6.0.6
Видео
Идентификатор : 1
Формат : AVC
Формат/Информация : Advanced Video Codec
Профиль формата : High@L4
Параметр CABAC формата : Да
Параметр ReFrames формата : 3 кадра
Идентификатор кодека : avc1
Идентификатор кодека/Информация : Advanced Video Coding
Продолжительность : 11 м.
Продолжительность оригинала : 11 м.
Битрейт : 2937 Кбит/сек
Ширина : 1920 пикселей
Высота : 1080 пикселей
Соотношение сторон : 16:9
Режим частоты кадров : Постоянный
Частота кадров : 25,000 кадров/сек
Цветовое пространство : YUV
Субдискретизация насыщенности : 4:2:0
Битовая глубина : 8 бит
Тип развёртки : Прогрессивная
Бит/(Пиксели*Кадры) : 0.057
Размер потока : 237 Мбайт (94%)
Размер потока оригинала : 237 Мбайт (94%)
Язык : English
Дата кодирования : UTC 2016-10-13 15:39:26
Дата пометки : UTC 2016-10-13 15:39:26
Цветовой диапазон : Limited
Основные цвета : BT.709
Характеристики трансфера : BT.709
Коэффициенты матрицы : BT.709
mdhd_Duration : 677760
Аудио
Идентификатор : 2
Формат : AAC
Формат/Информация : Advanced Audio Codec
Профиль формата : LC
Идентификатор кодека : 40
Продолжительность : 11 м.
Duration_FirstFrame : -8 мс.
Вид битрейта : Переменный
Битрейт : 192 Кбит/сек
Каналы : 2 канала
Расположение каналов : Front: L R
Частота : 44,1 КГц
Частота кадров : 43,066 кадра/сек (1024 spf)
Метод сжатия : С потерями
Размер потока : 15,5 Мбайт (6%)
Язык : English
Дата кодирования : UTC 2016-10-13 15:39:26
Дата пометки : UTC 2016-10-13 15:39:26
mdhd_Duration : 677806


Релиз от:
Автор релиза: /



   Похожие торренты   Торрент   Размер 
В этой теме нет новых непрочитанных сообщений. Джинглики [01-07] (2015) WEB-DLRip от ExKinoRay

16 | 0

1.3 ГБ

В этой теме нет новых непрочитанных сообщений. Джинглики [01-06] (2015) WEB-DLRip 720p от ExKinoRay

8 | 0

915.03 МБ

В этой теме нет новых непрочитанных сообщений. Джинглики [01-07] (2015) WEB-DLRip 720p от ExKinoRay

13 | 3

1.07 ГБ

В этой теме нет новых непрочитанных сообщений. Джинглики [01] (2015) WEB-DLRip от MegaPeer

531 | 23

143.41 МБ

В этой теме нет новых непрочитанных сообщений. Джинглики [01] (2015) WEB-DLRip 720p от MegaPeer

633 | 19

218.35 МБ

В этой теме нет новых непрочитанных сообщений. Киока / Kioka [01-29] (2015) WEB-DLRip 1080p от ExKinoRay | D

0 | 0

3.21 ГБ

В этой теме нет новых непрочитанных сообщений. Киока / Kioka [01-56] (2015) WEB-DLRip 1080p от ExKinoRay | D

3 | 0

6.31 ГБ




Вы не можете начинать темы
Вы не можете отвечать на сообщения
Вы не можете редактировать свои сообщения
Вы не можете удалять свои сообщения
Вы не можете добавлять вложения

Перейти:  
Для Мосгорсуда, Роскомнадзора и рекламодателей: mosgorsud-torrent[собачка]yandex.ru
 Вход
ppkBB3cker v.2 © 2008-2014 @ PPK
[ Time : 0.045s | 16 Queries | GZIP : Off ]

Торрент трекер RUTOR.IN, Не можете зайти на rutor.org? Какой новый адрес рутор? Какое зеркало рутор? Не работает rutor.org и зеркала? Тогда наш торрент специально для вас. Rutor.in неофициальное зеркало rutor. В случае если у Вас заблокирован rutor или вдруг Вы не можете на него зайти, то Вы без труда сможете скачать бесплатно и без рекламы последние новинки кино, игр, сериалов и прочего у нас, на Rutor.in. Не нужно использовать прокси, чтобы зайти на рутор, достаточно воспользоваться нашим ресурсом. Все новые фильмы, игры, сериалы, книги и музыка за 2013 и 2014 годы через торрент бесплатно. Скачивайте фильмы в хорошем качестве, игры для пк, xbox, playstation без регистрации. У нас вы найдете новые Зарубежные сериалы и Русские сериалы 2013, 2014, 2015 годов. Оставайтесь с нами, качайте любимые фильмы, игры, сериалы, книги и музыку.
cron