img image001 image001 image001 image001 image001 image001 image001 image001 image001 image001 image001 image001 image001 image001 image001

Planets Sun Sun Sun
Статистика раздачи
Автор: PriZraK | Размер: 7.97 ГБ | Добавлен: 13 ноя 2016
Раздают: 15    Качают: 11
Скачать торрент
Скачать торрент
Описание торрента

СообщениеДобавлено: 13 ноя 2016 

Информация о фильме
Название: Марин и его друзья. Подводные истории
Оригинальное название: Bubble Marin
Год выхода: 2014-2015
Страна: Южная Корея, Redrover Co, Studio Dot
Жанр: Мультсериал, мультфильм, приключения, детский
Продолжительность: 52 х ~ 00:12:34, 10 х ~ 00:09:11
Перевод: Профессиональный дублированный (Карусель)
Режиссер: Ким Мин Сун
Роли озвучивали: Крис Парнелл, Макс Чарльз, Дэвид П. Смит, Дитер Джэнсен, Джефф Беннетт, Кари Уолгрен, Da'Vine Joy Randolph, Майк Белл, Джошуа Китон, Эрик Бауза
О фильме: Прекрасный подводный мир: он так многообразен, здесь столько интересного и неожиданного! Главный герой этой увлекательной истории – очаровательная субмарина по имени Марин. Он настолько добрый, что кажется, что приходить на помощь тем, кто попал в затруднительную ситуацию – его призвание. А все начинается с того, что тихоходные транспортные черепашки отвозят семью Марина не в то место, куда было нужно, и поэтому домик главного героя оказывается в маленьком городке со смешным названием Ква-Ква-Вилль. Но Марин ничуть не разочарован, ведь новое место жительства населено гостеприимными и симпатичными субмаринчиками, которые становятся в скором времени его лучшими друзьями. А главное, здесь ждут Мартина удивительные приключения, порой полные опасностей, столкновения с акулами и другими подводными хищниками...
01. Здравствуй, Аквавилль!
02. Марин – новый ученик
03. Стражи кораллов - вперед!
04. Украшаем штаб-квартиру
05. Дикий скат
06. Труба мистера Кана
07. Цветение кораллов
08. Капсула времени
09. Тайна мистера Кана
10. Удачный день
11. Дружба в опасности
12. Разгадать код
13. Лучший дедушка на свете
14. Уколы-это страшно
15. Охотники за привидениями
16. Никогда не лги
17. Офицер Марин
18. Торт! Торт!
19. Нам нужен злодей
20. Лучший в мире почтальон
21. Хороший сын
22. Хочу игровую приставку
23. Рождение Лоджитрона
24. Случай со шпионом
25. Верните нашу штаб-квартиру
26. Моя сестренка Руби
27. В поисках сенсации
28. Альто переезжает
29. Никаких секретов
30. Как вырастить коралловый цветок
31. Сон в летнюю ночь
32. Марин быстрее всех
33. Хочу стать взрослым
34. Никогда не притворяйся
35. Изобретение Мистера Кана
36. Тайные друзья
37. Альто и черепаха
38. День рождения Виви
39. Гого и Акула-Звезда
40. Уплывший скат
41. Детектив Марин
42. Альто учится мастерить
43. Что случилось с Лоджиком
44. Найти преступника
45. Папы снова в школе
46. Лоджик – чистюля
47. Тяжело в учении…
48. Викторина
49. Аквавилль в опасности. Ч-1
50. Аквавилль в опасности. Ч-2
51. Первая любовь Альто
52. Спасение кита
Бонус_Посмотри и раскрась:
Выпуск 1 - Посмотри и раскрась
Выпуск 2 - Сон в летнюю ночь
Выпуск 3 - Уколы-это страшно!
Выпуск 4 - Моя сестренка Руби
Выпуск 5 - Лучший почтальон
Выпуск 6 - Спасение кита
Выпуск 7 - Торт! Торт!
Выпуск 8 - Найти преступника
Выпуск 9 - Как вырастить цветок
Выпуск 10 - Посмотри и раскрась



Доп. информация:
Семпл


Файл
Формат: AVI
Качество: WEB-DLRip
Видео: 720x400 (1.80:1), 25 fps, XviD build 65 ~1301 kbps avg, 0.18 bit/pixel
Звук: 48 kHz, AC3 Dolby Digital, 2/0 (L,R) ch, ~192.00 kbps avg
21. Хороший сын. XviD-merci-.avi
Формат : AVI
Формат/Информация : Audio Video Interleave
Размер файла : 135 Мбайт
Продолжительность : 12 м.
Общий поток : 1500 Кбит/сек
Видео
Идентификатор : 0
Формат : MPEG-4 Visual
Профиль формата : Advanced Simple@L5
Параметр BVOP формата : 1
Параметр QPel формата : Нет
Параметр GMC формата : Без точки перехода
Параметр матрицы формата : Default (MPEG)
Идентификатор кодека : XVID
Идентификатор кодека/Подсказка : XviD
Продолжительность : 12 м.
Битрейт : 1293 Кбит/сек
Ширина : 720 пикселей
Высота : 400 пикселей
Соотношение сторон : 16:9
Частота кадров : 25,000 кадров/сек
Цветовое пространство : YUV
Субдискретизация насыщенности : 4:2:0
Битовая глубина : 8 бит
Тип развёртки : Прогрессивная
Метод сжатия : С потерями
Бит/(Пиксели*Кадры) : 0.180
Размер потока : 116 Мбайт (86%)
Библиотека кодирования : XviD 65
Аудио
Идентификатор : 1
Формат : AC-3
Формат/Информация : Audio Coding 3
Расширение режима : CM (complete main)
Параметр Endianness формата : Big
Идентификатор кодека : 2000
Продолжительность : 12 м.
Вид битрейта : Постоянный
Битрейт : 192 Кбит/сек
Каналы : 2 канала
Расположение каналов : Front: L R
Частота : 48,0 КГц
Частота кадров : 31,250 кадров/сек (1536 spf)
Метод сжатия : С потерями
Размер потока : 17,3 Мбайт (13%)
Выравнивание : Соединение по промежуткам
Продолжительность промежутка : 33 мс. (0,82 видеокадр)


Релиз от:
Автор релиза: /



   Похожие торренты   Торрент   Размер 
В этой теме нет новых непрочитанных сообщений. Марин и его друзья. Подводные истории / Bubble Marin [s01 + Бонусы] (2014-2015) WEB-DLRip 1080p от ExKinoRay | D (Карусель)

14 | 19

13.59 ГБ

В этой теме нет новых непрочитанных сообщений. Марин и его друзья. Подводные истории / Bubble Marin [s01 + Бонусы] (2014-2015) WEB-DLRip 720p от ExKinoRay | D (Карусель)

27 | 26

7.38 ГБ

В этой теме нет новых непрочитанных сообщений. Подводные друзья / Veealused (1973) WEBRip

14 | 2

112.03 МБ

В этой теме нет новых непрочитанных сообщений. Буба (booba) [1-13 + Бонусы] (2014-2016) WEB-DLRip от ExKinoRay

86 | 12

582.29 МБ

В этой теме нет новых непрочитанных сообщений. Буба (booba) [1-13 + Бонусы] (2014-2016) WEB-DLRip от ExKinoRay

21 | 2

624.32 МБ

В этой теме нет новых непрочитанных сообщений. Буба (booba) [1-13 + Бонусы] (2014-2016) WEB-DLRip 720p от ExKinoRay

123 | 13

559.9 МБ

В этой теме нет новых непрочитанных сообщений. Буба (booba) [1-13 + Бонусы] (2014-2016) WEB-DLRip 1080p от ExKinoRay

127 | 13

975.38 МБ




Вы не можете начинать темы
Вы не можете отвечать на сообщения
Вы не можете редактировать свои сообщения
Вы не можете удалять свои сообщения
Вы не можете добавлять вложения

Перейти:  
Для Мосгорсуда, Роскомнадзора и рекламодателей: mosgorsud-torrent[собачка]yandex.ru
 Вход
ppkBB3cker v.2 © 2008-2014 @ PPK
[ Time : 1.309s | 17 Queries | GZIP : Off ]

Торрент трекер RUTOR.IN, Не можете зайти на rutor.org? Какой новый адрес рутор? Какое зеркало рутор? Не работает rutor.org и зеркала? Тогда наш торрент специально для вас. Rutor.in неофициальное зеркало rutor. В случае если у Вас заблокирован rutor или вдруг Вы не можете на него зайти, то Вы без труда сможете скачать бесплатно и без рекламы последние новинки кино, игр, сериалов и прочего у нас, на Rutor.in. Не нужно использовать прокси, чтобы зайти на рутор, достаточно воспользоваться нашим ресурсом. Все новые фильмы, игры, сериалы, книги и музыка за 2013 и 2014 годы через торрент бесплатно. Скачивайте фильмы в хорошем качестве, игры для пк, xbox, playstation без регистрации. У нас вы найдете новые Зарубежные сериалы и Русские сериалы 2013, 2014, 2015 годов. Оставайтесь с нами, качайте любимые фильмы, игры, сериалы, книги и музыку.