img image001 image001 image001 image001 image001 image001 image001 image001 image001 image001 image001 image001 image001 image001 image001

Planets Sun Sun Sun
Статистика раздачи
Автор: PriZraK | Размер: 646.26 МБ | Добавлен: 17 ноя 2016
Раздают: 9    Качают: 0
Скачать торрент
Скачать торрент
Описание торрента

СообщениеДобавлено: 17 ноя 2016 

Информация о фильме
Название: Киока
Оригинальное название: Kioka
Год выхода: 2015
Страна: Южная Корея, Goldilogks Studio, From East, KBS, KOCCA
Жанр: Мультсериал, детский, обучающий, познавательный
Продолжительность: 11 х ~ 00:07:00
Перевод: Профессиональный дублированный
Режиссеры: Ха Ши-Ким / Hwa-hee Kim, Нурен Шев / Nuranee Shaw
Роли озвучивали:
Киока - Лекси Джорден / Lexi Jorden
Селли (Selly) - Дженифер Кларк / Jennifer Clark
Бип, Буп (Beep, Boop) - Джесика Стрейс / Jessica Straus
Коко,Фифи, Боп (Koko, Fifi, Bop) - Мелиса Фешн / Melissa Fahn
О фильме: Добрый и милый мультик “Киока” для детей! В первой серии девочка Киока, ее песик и тюлень попадают в волшебную зимнюю страну... Новый развивающий мультик про любознательную девочку и ее друзей! Развивающие мультики для самых маленьких.
01. Воздушный змей
02. Льдинка
03. Увеличительное стекло
04. Носок
05. Коробка
06. На приеме у врача
07. Стеклянные шарики
08. Вкусная неприятность
09. Воздушный шар
10. Урок рисования
11. Талантливая Коко



Доп. информация:
Семпл


Файл
Формат: MP4
Качество: WEB-DLRip 720p
Видео: MPEG4-AVC, Main@L3.1, 1280x720 (16:9), ~ 1 126 Kbps, 25.000 fps
Звук: 44.1 KHz, AC3 2.0, 126 Kbps
Субтитры: нет
08. Вкусная неприятность. HD-merci-.mp4
Формат : MPEG-4
Профиль формата : Base Media / Version 2
Идентификатор кодека : mp42 (mp42/isom)
Размер файла : 63,0 Мбайт
Продолжительность : 7 м. 0 с.
Режим общего битрейта : Переменный
Общий поток : 1257 Кбит/сек
Дата кодирования : UTC 2016-10-30 04:47:34
Дата пометки : UTC 2016-10-30 04:47:34
gsst : 0
gstd : 423090
Видео
Идентификатор : 1
Формат : AVC
Формат/Информация : Advanced Video Codec
Профиль формата : Main@L3.1
Параметр CABAC формата : Да
Параметр ReFrames формата : 3 кадра
Идентификатор кодека : avc1
Идентификатор кодека/Информация : Advanced Video Coding
Продолжительность : 7 м. 0 с.
Продолжительность оригинала : 7 м. 0 с.
Битрейт : 1126 Кбит/сек
Ширина : 1280 пикселей
Высота : 720 пикселей
Соотношение сторон : 16:9
Режим частоты кадров : Постоянный
Частота кадров : 25,000 кадров/сек
Цветовое пространство : YUV
Субдискретизация насыщенности : 4:2:0
Битовая глубина : 8 бит
Тип развёртки : Прогрессивная
Бит/(Пиксели*Кадры) : 0.049
Размер потока : 56,4 Мбайт (90%)
Размер потока оригинала : 56,4 Мбайт (90%)
Язык : English
Дата кодирования : UTC 2016-10-30 04:47:34
Дата пометки : UTC 2016-10-30 04:47:34
Цветовой диапазон : Limited
Основные цвета : BT.709
Характеристики трансфера : BT.709
Коэффициенты матрицы : BT.709
mdhd_Duration : 420000
Аудио
Идентификатор : 2
Формат : AAC
Формат/Информация : Advanced Audio Codec
Профиль формата : LC
Идентификатор кодека : 40
Продолжительность : 7 м. 0 с.
Duration_FirstFrame : -5 мс.
Вид битрейта : Переменный
Битрейт : 126 Кбит/сек
Каналы : 2 канала
Расположение каналов : Front: L R
Частота : 44,1 КГц
Частота кадров : 43,066 кадра/сек (1024 spf)
Метод сжатия : С потерями
Размер потока : 6,29 Мбайт (10%)
Язык : English
Дата кодирования : UTC 2016-10-30 04:47:34
Дата пометки : UTC 2016-10-30 04:47:34
mdhd_Duration : 420044


Релиз от:
Автор релиза: /



   Похожие торренты   Торрент   Размер 
В этой теме нет новых непрочитанных сообщений. Киока / Kioka [01-11] (2015) WEB-DLRip 720p от ExKinoRay | D

1 | 1

848.97 МБ

В этой теме нет новых непрочитанных сообщений. Киока / Kioka [01-11] (2015) WEB-DLRip от ExKinoRay | D

5 | 0

884.27 МБ

В этой теме нет новых непрочитанных сообщений. Киока / Kioka [01-11] (2015) WEB-DLRip от ExKinoRay | D

3 | 3

1.1 ГБ

В этой теме нет новых непрочитанных сообщений. Киока / Kioka [01-11] (2015) WEB-DLRip 1080p от ExKinoRay | D

5 | 1

1.11 ГБ

В этой теме нет новых непрочитанных сообщений. Киока / Kioka [01-11] (2015) WEB-DLRip 1080p от ExKinoRay | D

0 | 4

1.43 ГБ

В этой теме нет новых непрочитанных сообщений. Буба [01-08] (2015) WEB-DLRip (720p) от ExKinoRay

736 | 47

497.35 МБ

В этой теме нет новых непрочитанных сообщений. Бумажки [01-34] (2015) WEB-DLRip 720p от ExKinoRay

100 | 16

2.24 ГБ




Вы не можете начинать темы
Вы не можете отвечать на сообщения
Вы не можете редактировать свои сообщения
Вы не можете удалять свои сообщения
Вы не можете добавлять вложения

Перейти:  
Для Мосгорсуда, Роскомнадзора и рекламодателей: mosgorsud-torrent[собачка]yandex.ru
 Вход
ppkBB3cker v.2 © 2008-2014 @ PPK
[ Time : 0.090s | 15 Queries | GZIP : Off ]

Торрент трекер RUTOR.IN, Не можете зайти на rutor.org? Какой новый адрес рутор? Какое зеркало рутор? Не работает rutor.org и зеркала? Тогда наш торрент специально для вас. Rutor.in неофициальное зеркало rutor. В случае если у Вас заблокирован rutor или вдруг Вы не можете на него зайти, то Вы без труда сможете скачать бесплатно и без рекламы последние новинки кино, игр, сериалов и прочего у нас, на Rutor.in. Не нужно использовать прокси, чтобы зайти на рутор, достаточно воспользоваться нашим ресурсом. Все новые фильмы, игры, сериалы, книги и музыка за 2013 и 2014 годы через торрент бесплатно. Скачивайте фильмы в хорошем качестве, игры для пк, xbox, playstation без регистрации. У нас вы найдете новые Зарубежные сериалы и Русские сериалы 2013, 2014, 2015 годов. Оставайтесь с нами, качайте любимые фильмы, игры, сериалы, книги и музыку.