img image001 image001 image001 image001 image001 image001 image001 image001 image001 image001 image001 image001 image001 image001 image001

Planets Sun Sun Sun
Статистика раздачи
Автор: PriZraK | Размер: 884.27 МБ | Добавлен: 17 ноя 2016
Раздают: 5    Качают: 0
Скачать торрент
Скачать торрент
Описание торрента

СообщениеДобавлено: 17 ноя 2016 

Информация о фильме
Название: Киока
Оригинальное название: Kioka
Год выхода: 2015
Страна: Южная Корея, Goldilogks Studio, From East, KBS, KOCCA
Жанр: Мультсериал, детский, обучающий, познавательный
Продолжительность: 11 х ~ 00:07:00
Перевод: Профессиональный дублированный
Режиссеры: Ха Ши-Ким / Hwa-hee Kim, Нурен Шев / Nuranee Shaw
Роли озвучивали:
Киока - Лекси Джорден / Lexi Jorden
Селли (Selly) - Дженифер Кларк / Jennifer Clark
Бип, Буп (Beep, Boop) - Джесика Стрейс / Jessica Straus
Коко,Фифи, Боп (Koko, Fifi, Bop) - Мелиса Фешн / Melissa Fahn
О фильме: Добрый и милый мультик “Киока” для детей! В первой серии девочка Киока, ее песик и тюлень попадают в волшебную зимнюю страну... Новый развивающий мультик про любознательную девочку и ее друзей! Развивающие мультики для самых маленьких.
01. Воздушный змей
02. Льдинка
03. Увеличительное стекло
04. Носок
05. Коробка
06. На приеме у врача
07. Стеклянные шарики
08. Вкусная неприятность
09. Воздушный шар
10. Урок рисования
11. Талантливая Коко



Доп. информация:
Семпл


Файл
Формат: AVI
Качество: WEB-DLRip
Видео: 720x400 (1.80:1), 25 fps, XviD build 65 ~1404 kbps avg, 0.20 bit/pixel
Звук: 48 kHz, AC3 Dolby Digital, 2/0 (L,R) ch, ~192.00 kbps avg
05. Коробка. XviD-merci-.avi
Формат : AVI
Формат/Информация : Audio Video Interleave
Размер файла : 80,4 Мбайт
Продолжительность : 6 м. 59 с.
Общий поток : 1606 Кбит/сек
Программа кодирования : VirtualDubMod 1.5.10.3 | www.virtualdub-fr.org || (build 2550/release)
Библиотека кодирования : VirtualDubMod build 2550/release
Видео
Идентификатор : 0
Формат : MPEG-4 Visual
Профиль формата : Advanced Simple@L5
Параметр BVOP формата : 1
Параметр QPel формата : Нет
Параметр GMC формата : Без точки перехода
Параметр матрицы формата : Default (MPEG)
Идентификатор кодека : XVID
Идентификатор кодека/Подсказка : XviD
Продолжительность : 6 м. 59 с.
Битрейт : 1404 Кбит/сек
Ширина : 720 пикселей
Высота : 400 пикселей
Соотношение сторон : 16:9
Частота кадров : 25,000 кадров/сек
Цветовое пространство : YUV
Субдискретизация насыщенности : 4:2:0
Битовая глубина : 8 бит
Тип развёртки : Прогрессивная
Метод сжатия : С потерями
Бит/(Пиксели*Кадры) : 0.195
Размер потока : 70,3 Мбайт (87%)
Библиотека кодирования : XviD 65
Аудио
Идентификатор : 1
Формат : AC-3
Формат/Информация : Audio Coding 3
Расширение режима : CM (complete main)
Параметр Endianness формата : Big
Идентификатор кодека : 2000
Продолжительность : 6 м. 59 с.
Вид битрейта : Постоянный
Битрейт : 192 Кбит/сек
Каналы : 2 канала
Расположение каналов : Front: L R
Частота : 48,0 КГц
Частота кадров : 31,250 кадров/сек (1536 spf)
Метод сжатия : С потерями
Размер потока : 9,61 Мбайт (12%)
Выравнивание : Разделение по промежуткам
Продолжительность промежутка : 40 мс. (1,00 видеокадр)
Время предзагрузки промежутка : 500 мс.


Релиз от:
Автор релиза: /



   Похожие торренты   Торрент   Размер 
В этой теме нет новых непрочитанных сообщений. Киока / Kioka [01-11] (2015) WEB-DLRip от ExKinoRay | D

8 | 5

1.1 ГБ

В этой теме нет новых непрочитанных сообщений. Киока / Kioka [01-11] (2015) WEB-DLRip 1080p от ExKinoRay | D

1 | 4

1.43 ГБ

В этой теме нет новых непрочитанных сообщений. Киока / Kioka [01-11] (2015) WEB-DLRip 720p от ExKinoRay | D

0 | 3

848.97 МБ

В этой теме нет новых непрочитанных сообщений. Киока / Kioka [01-11] (2015) WEB-DLRip 1080p от ExKinoRay | D

4 | 1

1.11 ГБ

В этой теме нет новых непрочитанных сообщений. Киока / Kioka [01-11] (2015) WEB-DLRip 720p от ExKinoRay | D

10 | 0

646.26 МБ

В этой теме нет новых непрочитанных сообщений. Пёс [01-03 из 28] (2015) WEB-DLRip от ExKinoRay

261 | 123

1.61 ГБ

В этой теме нет новых непрочитанных сообщений. Пёс [01-03 из 28] (2015) WEB-DLRip от ExKinoRay

277 | 275

2.15 ГБ




Вы не можете начинать темы
Вы не можете отвечать на сообщения
Вы не можете редактировать свои сообщения
Вы не можете удалять свои сообщения
Вы не можете добавлять вложения

Перейти:  
Для Мосгорсуда, Роскомнадзора и рекламодателей: mosgorsud-torrent[собачка]yandex.ru
 Вход
ppkBB3cker v.2 © 2008-2014 @ PPK
[ Time : 0.565s | 16 Queries | GZIP : Off ]

Торрент трекер RUTOR.IN, Не можете зайти на rutor.org? Какой новый адрес рутор? Какое зеркало рутор? Не работает rutor.org и зеркала? Тогда наш торрент специально для вас. Rutor.in неофициальное зеркало rutor. В случае если у Вас заблокирован rutor или вдруг Вы не можете на него зайти, то Вы без труда сможете скачать бесплатно и без рекламы последние новинки кино, игр, сериалов и прочего у нас, на Rutor.in. Не нужно использовать прокси, чтобы зайти на рутор, достаточно воспользоваться нашим ресурсом. Все новые фильмы, игры, сериалы, книги и музыка за 2013 и 2014 годы через торрент бесплатно. Скачивайте фильмы в хорошем качестве, игры для пк, xbox, playstation без регистрации. У нас вы найдете новые Зарубежные сериалы и Русские сериалы 2013, 2014, 2015 годов. Оставайтесь с нами, качайте любимые фильмы, игры, сериалы, книги и музыку.