img image001 image001 image001 image001 image001 image001 image001 image001 image001 image001 image001 image001 image001 image001 image001

Planets Sun Sun Sun
Статистика раздачи
Автор: PriZraK | Размер: 1.41 ГБ | Добавлен: 18 ноя 2016
Раздают: 102    Качают: 6
Скачать торрент
Скачать торрент
Описание торрента

СообщениеДобавлено: 18 ноя 2016 


Информация о фильме
Название: Тайная жизнь домашних животных
Оригинальное название: The Secret Life of Pets
Год выпуска: 2016
Жанр: мультфильм, комедия, семейный
Режиссеры: Ярроу Чейни , Крис Рено
В ролях: Луис С.К. (Max, озвучка), Эрик Стоунстрит (Duke, озвучка), Кевин Харт (Snowball, озвучка), Дженни Слейт (Gidget, озвучка), Элли Кемпер (Katie, озвучка), Альберт Брукс (Tiberius, озвучка), Лэйк Белл (Chloe, озвучка), Дэна Карви (Pops, озвучка), Хэннибал Бёресс (Buddy, озвучка), Бобби Мойнахан (Mel, озвучка), Крис Рено (Norman, озвучка), Стив Куган (Ozone / Reginald, озвучка)
О фильме:
Что делают домашние животные пока хозяева пропадают на работе? С тоской смотрят в окно? Смиренно дремлют на коврике у двери? Как бы не так. Они ведут свою тайную жизнь.

Страна: Япония, США
Студия: Dentsu, Fuji Television Network Inc., Illumination Entertainment, Universal Pictures
Продолжительность: 01:26:27
Перевод: Профессиональный (полное дублирование) | Line
Файл
Формат: avi
Качество: BDRip
Видео: XviD build 73, 704x384 (1.85:1), 23.976 fps, 1948 Kbps (0.301 bit/pixel)
Звук: 48.0 kHz, AC3, 2/0 ch, 384 kbps
Субтитры: Нет
General
Complete name : Tajnaja.Zhiznj.Domashnih.Zhivotnyh.2016.XviD.1.45Gb.BDRip.GeneralFilm.avi
Format : AVI
Format/Info : Audio Video Interleave
File size : 1.41 GiB
Duration : 1h 26mn
Overall bit rate : 2 341 Kbps
Writing application : VirtualDubMod 1.5.10.3 | www.virtualdub-fr.org || (build 2550/release)
Writing library : VirtualDubMod build 2550/release
Video
ID : 0
Format : MPEG-4 Visual
Format profile : Advanced Simple@L5
Format settings, BVOP : 1
Format settings, QPel : No
Format settings, GMC : No warppoints
Format settings, Matrix : Custom
Codec ID : XVID
Codec ID/Hint : XviD
Duration : 1h 26mn
Bit rate : 1 948 Kbps
Width : 704 pixels
Height : 384 pixels
Display aspect ratio : 1.85:1
Frame rate : 23.976 (23976/1000) fps
Color space : YUV
Chroma subsampling : 4:2:0
Bit depth : 8 bits
Scan type : Progressive
Compression mode : Lossy
Bits/(Pixel*Frame) : 0.301
Stream size : 1.18 GiB (83%)
Writing library : XviD 73
Audio
ID : 1
Format : AC-3
Format/Info : Audio Coding 3
Mode extension : CM (complete main)
Format settings, Endianness : Big
Codec ID : 2000
Duration : 1h 26mn
Bit rate mode : Constant
Bit rate : 384 Kbps
Channel(s) : 2 channels
Channel positions : Front: L R
Sampling rate : 48.0 KHz
Frame rate : 31.250 fps (1536 spf)
Compression mode : Lossy
Stream size : 237 MiB (16%)
Alignment : Split accross interleaves
Interleave, duration : 42 ms (1.00 video frame)
Interleave, preload duratio : 500 ms





Релиз от:
Исходник: The.Secret.Life.of.Pets.2016.BDREMUX.1080p.ExKinoRay.mkv



   Похожие торренты   Торрент   Размер 
В этой теме нет новых непрочитанных сообщений. Тайная жизнь домашних животных / The Secret Life of Pets (2016) BDRip от GeneralFilm | Line

14 | 12

1.41 ГБ

В этой теме нет новых непрочитанных сообщений. Тайная жизнь домашних животных / The Secret Life of Pets (2016) BDRip от GeneralFilm | Line

17 | 7

743.87 МБ

В этой теме нет новых непрочитанных сообщений. Тайная жизнь домашних животных / The Secret Life of Pets (2016) BDRip от GeneralFilm | Line

19 | 2

743.87 МБ

В этой теме нет новых непрочитанных сообщений. Тайная жизнь домашних животных / The Secret Life of Pets (2016) HDTVRip от GeneralFilm | Line

7520 | 720

744.37 МБ

В этой теме нет новых непрочитанных сообщений. Тайная жизнь домашних животных / The Secret Life of Pets (2016) BDRip 1080p | 60 FPS | LINE

76 | 12

6.27 ГБ

В этой теме нет новых непрочитанных сообщений. Тайная жизнь домашних животных / The Secret Life of Pets (2016) TS | Line

5678 | 481

1.36 ГБ

В этой теме нет новых непрочитанных сообщений. Тайная жизнь домашних животных / The Secret Life of Pets (2016) BDRip 720p от ExKinoRay | Line

0 | 0

3.91 ГБ




Вы не можете начинать темы
Вы не можете отвечать на сообщения
Вы не можете редактировать свои сообщения
Вы не можете удалять свои сообщения
Вы не можете добавлять вложения

Перейти:  
Для Мосгорсуда, Роскомнадзора и рекламодателей: mosgorsud-torrent[собачка]yandex.ru
 Вход
ppkBB3cker v.2 © 2008-2014 @ PPK
[ Time : 0.036s | 14 Queries | GZIP : Off ]

Торрент трекер RUTOR.IN, Не можете зайти на rutor.org? Какой новый адрес рутор? Какое зеркало рутор? Не работает rutor.org и зеркала? Тогда наш торрент специально для вас. Rutor.in неофициальное зеркало rutor. В случае если у Вас заблокирован rutor или вдруг Вы не можете на него зайти, то Вы без труда сможете скачать бесплатно и без рекламы последние новинки кино, игр, сериалов и прочего у нас, на Rutor.in. Не нужно использовать прокси, чтобы зайти на рутор, достаточно воспользоваться нашим ресурсом. Все новые фильмы, игры, сериалы, книги и музыка за 2013 и 2014 годы через торрент бесплатно. Скачивайте фильмы в хорошем качестве, игры для пк, xbox, playstation без регистрации. У нас вы найдете новые Зарубежные сериалы и Русские сериалы 2013, 2014, 2015 годов. Оставайтесь с нами, качайте любимые фильмы, игры, сериалы, книги и музыку.