img image001 image001 image001 image001 image001 image001 image001 image001 image001 image001 image001 image001 image001 image001 image001

Planets Sun Sun Sun
Статистика раздачи
Автор: PriZraK | Размер: 7.97 ГБ | Добавлен: 18 ноя 2016
Раздают: 36    Качают: 8
Скачать торрент
Скачать торрент
Описание торрента

СообщениеДобавлено: 18 ноя 2016 







Тайная жизнь домашних животных
The Secret Life of Pets
«Думаете, они ждут вас у порога весь день?»



Год выпуска: 2016
Страна: Япония, США (Universal Pictures, Illumination Entertainment, Chris Meledandri Production)
Жанр: Мультфильм, Комедия, Приключения, Семейный
Продолжительность: 01:26:28
Перевод: Профессиональный дублированный - Line
Режиссеры: Ярроу Чейни, Крис Рено / Yarrow Cheney, Chris Renaud


озвучивали (дублировали):

Max - Луис С.К. (Сергей Смирнов)
Duke - Эрик Стоунстрит (Юрий Брежнев)
Snowball - Кевин Харт (Илья Исаев)
Gidget - Дженни Слейт (Вероника Саркисова)
Katie - Элли Кемпер (Ирина Киреева)
Tiberius - Альберт Брукс (Тимофей Спивак)
Chloe - Лэйк Белл (Анастасия Лапина)
Pops - Дэна Карви (Алексей Колган)
Buddy - Хэннибал Бёресс (Данил Щебланов)
Mel - Бобби Мойнахан (Константин Карасик)
Norman - Крис Рено (Диомид Виноградов)
Ozone / Reginald - Стив Куган (Иван Калинин / Даниил Эльдаров)
Tattoo - Майкл Битти (Диомид Виноградов)
Maria - Сандра Эчеверриа




Описание: Что делают домашние животные пока хозяева пропадают на работе? С тоской смотрят в окно? Смиренно дремлют на коврике у двери? Как бы не так. Они ведут свою тайную жизнь.
Первый анимационный фильм в актёрской карьере Эрика Стоунстрита.
Третий анимационный фильм, в озвучивании которого принял участие Стив Куган. Он уже озвучивал персонажей мультфильмов «Гадкий я 2» (2013) и «Миньоны» (2015).
Первый анимационный фильм, в озвучивании героев которого приняли участие Луис С. К. и Кевин Харт.
Четвёртый анимационный фильм, один из героев которого говорит голосом Альберта Брукса. Ранее этот актёр принимал участие в озвучивании полнометражных мультфильмов «В поисках Немо» (2003), «Симпсоны в кино» (2007) и «В поисках Дори» (2016).
Дженни Слейт и Луис С. К. вместе играли в телесериале «Парки и зоны отдыха» (2009-2015).
В апреле 2016 года актёр и комик Сет Майерс и его пёс по кличке Фрисби снялись в рекламе автомобилей, в которой рекламировалась анимационная комедия «Тайная жизнь домашних животных».
В трейлере звучит композиция «Downtown».
В одной из сцен на стене в квартире можно заметить постер классического фильма Альфреда Хичкока «Птицы».
Песня, которую слушает белый пудель после ухода хозяина, это композиция «Bounce» американской группы System of a Down.
В 2008 году в фильме с Мэттью МакКонахи «Золото дураков» Кевин Харт сыграл злодея по кличке Биг Банни ("bunny» по-английски «кролик»). В «Тайной жизни домашних животных» он озвучил одержимого местью кролика по имени Снежок, предводителя армии выброшенных на улицу домашних питомцев.
[*]На автобусе, в котором кролик Снежок едет в трейлере, висит рекламный постер компьютерно-анимационного мюзикла Гарта Дженнингса «Путь к славе» производства компании «Illumination Entertainment», выход которого также запланирован на 2016 год.

Премьера: 16 июня 2016 (18 августа 2016)
Бюджет: $75 000 000
Кассовые сборы: $871 041 597




Качество: BDRip (by Ash61)
Контейнер: MKV
Формат 3D: Half OverUnder / Вертикальная анаморфная стереопара
Порядок ракурсов: левый ракурс первый


Видео: AVC / 1920х1080p / 23,976 fps / 11.7 Mbps
Аудио:
#1 - Русский / AC3 / 48 KHz / 5.1 ch / 640 Kbps (Дубляж - Line) [монтаж в 5.1 - WetY]
#2 - Украинский / AC3 / 48 KHz / 2 ch / 192 Kbps (Дубляж - Line [моно]) [спасибо Hurtom]
#3 - Английский / AC3 / 48 KHz / 5.1 ch / 640 Kbps (Original - BD 3D)
Субтитры (SRT):
Вшитые (softsub):
#1 - Русские Форсированные (включены по умолчанию)
#2 - Украинские Форсированные
#3 - English Full
#4 - English SDH
Внешние (UTF-8):
#1 - Русские Форсированные (включены по умолчанию)
#2 - Украинские Форсированные
General
Unique ID : 205910107243899676099015285113292609746 (0x9AE8D81983648E20868EA245B95458D2)
Complete name : E:TheSecretLifeOfPets(2016)3D-halfOU(As61)Line-5.1TheSecretLifeOfPets(2016)3D-halfOU(As61)Line-5.1.mkv
Format : Matroska
Format version : Version 2
File size : 8.13 GiB
Duration : 1h 26mn
Overall bit rate : 13.5 Mbps
Movie name : Тайная жизнь домашних животных / The Secret Life of Pets (2016) в 3Д
Encoded date : UTC 2016-11-09 18:47:14
Writing application : mkvmerge v5.8.0 ('No Sleep / Pillow') built on Sep 2 2012 15:37:04
Writing library : libebml v1.2.3 + libmatroska v1.3.0
Video
ID : 1
Format : AVC
Format/Info : Advanced Video Codec
Format profile : High@L4.1
Format settings, CABAC : Yes
Format settings, ReFrames : 4 frames
Codec ID : V_MPEG4/ISO/AVC
Duration : 1h 26mn
Bit rate : 11.7 Mbps
Width : 1 920 pixels
Height : 1 080 pixels
Display aspect ratio : 16:9
Frame rate mode : Constant
Frame rate : 23.976 fps
Color space : YUV
Chroma subsampling : 4:2:0
Bit depth : 8 bits
Scan type : Progressive
Bits/(Pixel*Frame) : 0.236
Stream size : 7.08 GiB (87%)
Title : BDRip by Ash61
Writing library : x264 core 146 r2538 121396c
Encoding settings : cabac=1 / ref=4 / deblock=1:-3:-3 / analyse=0x3:0x113 / me=umh / subme=10 / psy=1 / psy_rd=1.00:0.00 / mixed_ref=1 / me_range=32 / chroma_me=1 / trellis=2 / 8x8dct=1 / cqm=0 / deadzone=21,11 / fast_pskip=1 / chroma_qp_offset=-2 / threads=12 / lookahead_threads=3 / sliced_threads=0 / nr=0 / decimate=1 / interlaced=0 / bluray_compat=0 / constrained_intra=0 / bframes=12 / b_pyramid=2 / b_adapt=2 / b_bias=0 / direct=3 / weightb=1 / open_gop=0 / weightp=2 / keyint=250 / keyint_min=23 / scenecut=40 / intra_refresh=0 / rc_lookahead=60 / rc=crf / mbtree=1 / crf=14.5 / qcomp=0.70 / qpmin=0 / qpmax=69 / qpstep=4 / vbv_maxrate=40000 / vbv_bufsize=30000 / crf_max=0.0 / nal_hrd=none / filler=0 / frame-packing=4 / ip_ratio=1.40 / aq=1:0.70
Language : English
Default : Yes
Forced : No
Audio #1
ID : 2
Format : AC-3
Format/Info : Audio Coding 3
Mode extension : CM (complete main)
Format settings, Endianness : Big
Codec ID : A_AC3
Duration : 1h 26mn
Bit rate mode : Constant
Bit rate : 640 Kbps
Channel(s) : 6 channels
Channel positions : Front: L C R, Side: L R, LFE
Sampling rate : 48.0 KHz
Bit depth : 16 bits
Compression mode : Lossy
Stream size : 396 MiB (5%)
Title : Дубляж - Line (монтаж в 5.1 - WetY)
Language : Russian
Default : Yes
Forced : No
Audio #2
ID : 3
Format : AC-3
Format/Info : Audio Coding 3
Mode extension : CM (complete main)
Format settings, Endianness : Big
Codec ID : A_AC3
Duration : 1h 26mn
Bit rate mode : Constant
Bit rate : 192 Kbps
Channel(s) : 2 channels
Channel positions : Front: L R
Sampling rate : 48.0 KHz
Bit depth : 16 bits
Compression mode : Lossy
Stream size : 119 MiB (1%)
Title : Дубляж - Line (моно)
Language : Ukrainian
Default : No
Forced : No
Audio #3
ID : 4
Format : AC-3
Format/Info : Audio Coding 3
Mode extension : CM (complete main)
Format settings, Endianness : Big
Codec ID : A_AC3
Duration : 1h 26mn
Bit rate mode : Constant
Bit rate : 640 Kbps
Channel(s) : 6 channels
Channel positions : Front: L C R, Side: L R, LFE
Sampling rate : 48.0 KHz
Bit depth : 16 bits
Compression mode : Lossy
Stream size : 396 MiB (5%)
Title : Original - BD 3D
Language : English
Default : No
Forced : No
Text #1
ID : 5
Format : UTF-8
Codec ID : S_TEXT/UTF8
Codec ID/Info : UTF-8 Plain Text
Title : Форсированные
Language : Russian
Default : Yes
Forced : No
Text #2
ID : 6
Format : UTF-8
Codec ID : S_TEXT/UTF8
Codec ID/Info : UTF-8 Plain Text
Title : Форсированные
Language : Ukrainian
Default : No
Forced : No
Text #3
ID : 7
Format : UTF-8
Codec ID : S_TEXT/UTF8
Codec ID/Info : UTF-8 Plain Text
Title : Full
Language : English
Default : No
Forced : No
Text #4
ID : 8
Format : UTF-8
Codec ID : S_TEXT/UTF8
Codec ID/Info : UTF-8 Plain Text
Title : SDH
Language : English
Default : No
Forced : No
Menu
00:00:00.000 : :1
00:05:05.847 : :2
00:09:24.063 : :3
00:13:18.840 : :4
00:18:03.666 : :5
00:22:14.458 : :6
00:28:51.855 : :7
00:32:54.848 : :8
00:36:55.839 : :9
00:42:27.295 : :10
00:44:46.767 : :11
00:50:21.227 : :12
00:54:45.407 : :13
00:59:33.987 : :14
01:02:36.544 : :15
01:07:12.362 : :16
01:13:06.841 : :17
01:16:04.602 : :18
01:18:48.057 : :19
01:19:58.836 : :20





















   Похожие торренты   Торрент   Размер 
В этой теме нет новых непрочитанных сообщений. Тайная жизнь домашних животных / The Secret Life of Pets (2016) BDRip 1080p от Ash61 | 3D-Video | halfOU | Line

14 | 6

8.13 ГБ

В этой теме нет новых непрочитанных сообщений. Тайная жизнь домашних животных / The Secret Life of Pets (2016) BDRemux 1080p от ExKinoRay | 3D-Video | Line

8 | 2

32 ГБ

В этой теме нет новых непрочитанных сообщений. Тайная жизнь домашних животных / The Secret Life of Pets (2016) BDRip 1080p | 60 FPS | LINE

10 | 2

6.27 ГБ

В этой теме нет новых непрочитанных сообщений. Тайная жизнь домашних животных / The Secret Life of Pets (2016) BDRip 1080p от ExKinoRay | Line

15 | 3

7.94 ГБ

В этой теме нет новых непрочитанных сообщений. Тайная жизнь домашних животных / The Secret Life of Pets (2016) HDTV 1080p | Line

22805 | 1401

8.37 ГБ

В этой теме нет новых непрочитанных сообщений. Тайная жизнь домашних животных / The Secret Life of Pets (2016) BDRemux 1080p от ExKinoRay | Line

6 | 5

17.53 ГБ

В этой теме нет новых непрочитанных сообщений. Тайная жизнь домашних животных / The Secret Life of Pets (2016) BDRip от GeneralFilm | Line

7 | 3

743.87 МБ




Вы не можете начинать темы
Вы не можете отвечать на сообщения
Вы не можете редактировать свои сообщения
Вы не можете удалять свои сообщения
Вы не можете добавлять вложения

Перейти:  
Для Мосгорсуда, Роскомнадзора и рекламодателей: mosgorsud-torrent[собачка]yandex.ru
 Вход
ppkBB3cker v.2 © 2008-2014 @ PPK
[ Time : 0.033s | 16 Queries | GZIP : Off ]

Торрент трекер RUTOR.IN, Не можете зайти на rutor.org? Какой новый адрес рутор? Какое зеркало рутор? Не работает rutor.org и зеркала? Тогда наш торрент специально для вас. Rutor.in неофициальное зеркало rutor. В случае если у Вас заблокирован rutor или вдруг Вы не можете на него зайти, то Вы без труда сможете скачать бесплатно и без рекламы последние новинки кино, игр, сериалов и прочего у нас, на Rutor.in. Не нужно использовать прокси, чтобы зайти на рутор, достаточно воспользоваться нашим ресурсом. Все новые фильмы, игры, сериалы, книги и музыка за 2013 и 2014 годы через торрент бесплатно. Скачивайте фильмы в хорошем качестве, игры для пк, xbox, playstation без регистрации. У нас вы найдете новые Зарубежные сериалы и Русские сериалы 2013, 2014, 2015 годов. Оставайтесь с нами, качайте любимые фильмы, игры, сериалы, книги и музыку.
cron