img image001 image001 image001 image001 image001 image001 image001 image001 image001 image001 image001 image001 image001 image001 image001

Planets Sun Sun Sun
Статистика раздачи
Автор: PriZraK | Размер: 9.17 ГБ | Добавлен: 18 ноя 2016
Раздают: 194    Качают: 20
Скачать торрент
Скачать торрент
Описание торрента

СообщениеДобавлено: 18 ноя 2016 

Информация о фильме
Название: Тайная жизнь домашних животных
Оригинальное название: The Secret Life of Pets
Год выхода: 2016
Жанр: Мультфильм, комедия, семейный, полнометражный
Режиссер: Ярроу Чейни, Крис Рено
В ролях: Луис С.К., Эрик Стоунстрит, Кевин Харт, Дженни Слейт, Элли Кемпер, Альберт Брукс, Лэйк Белл, Дэна Карви, Хэннибал Бёресс, Бобби Мойнахан
О фильме:
Что делают домашние животные пока хозяева пропадают на работе? С тоской смотрят в окно? Смиренно дремлют на коврике у двери? Как бы не так. Они ведут свою тайную жизнь. Сюжет повествует о Кэти и её питомце псе Максе, который привык быть единственным любимцем своей хозяйки Кэтти. Живут они душа в душу, как лучшие друзья. Но, в один прекрасный момент идиллия прекращается, ведь в дом приводят нового питомца — Дюка. И Макс начинает недолюбливать соседа, еще бы, ведь Дюк забирает внимание хозяйки на себя, да что он вообще себе позволяет? Макс решает проучить Дюка, и избавится от него, чтобы любовь Кэтти вновь доставалась лишь ему одному, в результате чего оба оказываются далеко от дома и теперь им придется как-то взаимодействовать друг с другом, чтобы вместе найти дорогу домой...

Страна: США
Студия: Dentsu / Fuji Television Network Inc., Illumination Entertainment, Universal Pictures
Продолжительность: 01:26:27
Перевод: Дублированный | iTunes
Файл
Кодек: MPEG-4
Качество: BDRip 1080p
Видео: 1920x1036, 14.2 Mbit/s, 23.976 fps
Звук:
Аудио #01: 48 kHz, AC3, 5.1, 384 Kbps | Дублированный |
Аудио #02: 48 kHz, AC3, 5.1, 640 kbps | Оригинал |
Субтитры: Русские (forced), английские
General
Unique ID : 196343897216549540286926100302002460039 (0x93B67587E2CA277AAE66E6D647751587)
Complete name : G:VideoThe.Secret.Life.of.Pets.2016.D.BDRip.1080p.ExKinoRay.mkv
Format : Matroska
Format version : Version 4 / Version 2
File size : 9.17 GiB
Duration : 1 h 26 min
Overall bit rate : 15.2 Mb/s
Movie name : The.Secret.Life.of.Pets.2016.***селезень***
Encoded date : UTC 2016-11-16 20:56:02
Writing application : mkvmerge v8.3.0 ('Over the Horizon') 64bit
Writing library : libebml v1.3.1 + libmatroska v1.4.2
Video
ID : 1
Format : AVC
Format/Info : Advanced Video Codec
Format profile : High@L4.1
Format settings, CABAC : Yes
Format settings, ReFrames : 4 frames
Codec ID : V_MPEG4/ISO/AVC
Duration : 1 h 26 min
Bit rate : 14.2 Mb/s
Width : 1 920 pixels
Height : 1 036 pixels
Display aspect ratio : 1.85:1
Frame rate mode : Constant
Frame rate : 23.976 (24000/1001) FPS
Color space : YUV
Chroma subsampling : 4:2:0
Bit depth : 8 bits
Scan type : Progressive
Bits/(Pixel*Frame) : 0.297
Stream size : 8.55 GiB (93%)
Title : The.Secret.Life.of.Pets.2016. ***селезень***
Writing library : x264 core 146 r2538 121396c
Encoding settings : cabac=1 / ref=4 / deblock=1:-3:-3 / analyse=0x3:0x133 / me=umh / subme=11 / psy=1 / psy_rd=1.00:0.00 / mixed_ref=1 / me_range=32 / chroma_me=1 / trellis=2 / 8x8dct=1 / cqm=0 / deadzone=21,11 / fast_pskip=0 / chroma_qp_offset=-2 / threads=12 / lookahead_threads=1 / sliced_threads=0 / nr=0 / decimate=0 / interlaced=0 / bluray_compat=0 / constrained_intra=0 / bframes=8 / b_pyramid=2 / b_adapt=2 / b_bias=0 / direct=3 / weightb=1 / open_gop=0 / weightp=2 / keyint=240 / keyint_min=2 / scenecut=40 / intra_refresh=0 / rc_lookahead=50 / rc=2pass / mbtree=0 / bitrate=14155 / ratetol=1.0 / qcomp=0.70 / qpmin=0 / qpmax=69 / qpstep=4 / cplxblur=20.0 / qblur=0.5 / vbv_maxrate=50000 / vbv_bufsize=62500 / nal_hrd=none / filler=0 / ip_ratio=1.20 / pb_ratio=1.20 / aq=3:0.80
Language : English
Default : Yes
Forced : No
Audio #1
ID : 2
Format : AC-3
Format/Info : Audio Coding 3
Mode extension : CM (complete main)
Format settings, Endianness : Big
Codec ID : A_AC3
Duration : 1 h 26 min
Bit rate mode : Constant
Bit rate : 384 kb/s
Channel(s) : 6 channels
Channel positions : Front: L C R, Side: L R, LFE
Sampling rate : 48.0 kHz
Frame rate : 31.250 FPS (1536 spf)
Bit depth : 16 bits
Compression mode : Lossy
Stream size : 237 MiB (3%)
Title : iTunes
Language : Russian
Default : Yes
Forced : No
Audio #2
ID : 3
Format : AC-3
Format/Info : Audio Coding 3
Mode extension : CM (complete main)
Format settings, Endianness : Big
Codec ID : A_AC3
Duration : 1 h 26 min
Bit rate mode : Constant
Bit rate : 640 kb/s
Channel(s) : 6 channels
Channel positions : Front: L C R, Side: L R, LFE
Sampling rate : 48.0 kHz
Frame rate : 31.250 FPS (1536 spf)
Bit depth : 16 bits
Compression mode : Lossy
Stream size : 396 MiB (4%)
Title : Original
Language : English
Default : No
Forced : No
Text #1
ID : 4
Format : UTF-8
Codec ID : S_TEXT/UTF8
Codec ID/Info : UTF-8 Plain Text
Duration : 1 h 18 min
Bit rate : 1 b/s
Count of elements : 18
Stream size : 709 Bytes (0%)
Title : Forced
Language : Russian
Default : Yes
Forced : No
Text #2
ID : 5
Format : UTF-8
Codec ID : S_TEXT/UTF8
Codec ID/Info : UTF-8 Plain Text
Duration : 1 h 25 min
Bit rate : 50 b/s
Count of elements : 1314
Stream size : 31.5 KiB (0%)
Title : Full
Language : English
Default : No
Forced : No
Text #3
ID : 6
Format : UTF-8
Codec ID : S_TEXT/UTF8
Codec ID/Info : UTF-8 Plain Text
Duration : 1 h 26 min
Bit rate : 61 b/s
Count of elements : 1685
Stream size : 39.0 KiB (0%)
Title : SDH
Language : English
Default : No
Forced : No
Menu
00:00:00.000 : en:00:00:00.000
00:05:05.847 : en:00:05:05.847
00:09:24.063 : en:00:09:24.063
00:13:18.840 : en:00:13:18.840
00:18:03.666 : en:00:18:03.666
00:22:14.458 : en:00:22:14.458
00:28:51.855 : en:00:28:51.855
00:32:54.848 : en:00:32:54.848
00:36:55.839 : en:00:36:55.839
00:42:27.295 : en:00:42:27.295
00:44:46.767 : en:00:44:46.767
00:50:21.227 : en:00:50:21.227
00:54:45.407 : en:00:54:45.407
00:59:33.987 : en:00:59:33.987
01:02:36.544 : en:01:02:36.544
01:07:12.362 : en:01:07:12.362
01:13:06.841 : en:01:13:06.841
01:16:04.602 : en:01:16:04.602
01:18:48.057 : en:01:18:48.057
01:19:58.836 : en:01:19:58.836


Релиз от: Автор релиза:



   Похожие торренты   Торрент   Размер 
В этой теме нет новых непрочитанных сообщений. Тайная жизнь домашних животных / The Secret Life of Pets (2016) BDRemux 1080p от ExKinoRay | iTunes

34 | 7

17.53 ГБ

В этой теме нет новых непрочитанных сообщений. Тайная жизнь домашних животных / The Secret Life of Pets (2016) BDRemux 1080p от ExKinoRay | 3D-Video | iTunes

19 | 10

32.04 ГБ

В этой теме нет новых непрочитанных сообщений. Тайная жизнь домашних животных / The Secret Life of Pets (2016) BDRip 720p от ExKinoRay | iTunes

647 | 61

4.43 ГБ

В этой теме нет новых непрочитанных сообщений. Тайная жизнь домашних животных / The Secret Life of Pets (2016) BDRip-AVC от ExKinoRay | iTunes Russia

157 | 13

1.42 ГБ

В этой теме нет новых непрочитанных сообщений. Тайная жизнь домашних животных / The Secret Life of Pets (2016) BDRip 1080p | 60 FPS | iTunes

120 | 14

6.89 ГБ

В этой теме нет новых непрочитанных сообщений. Тайная жизнь домашних животных / The Secret Life of Pets (2016) BDRip 1080p от ExKinoRay | Line

178 | 6

7.94 ГБ

В этой теме нет новых непрочитанных сообщений. Тайная жизнь домашних животных / The Secret Life of Pets (2016) BDRip 1080p от New-Team & qqss44 | iTunes

1601 | 117

5.59 ГБ




Вы не можете начинать темы
Вы не можете отвечать на сообщения
Вы не можете редактировать свои сообщения
Вы не можете удалять свои сообщения
Вы не можете добавлять вложения

Перейти:  
Для Мосгорсуда, Роскомнадзора и рекламодателей: mosgorsud-torrent[собачка]yandex.ru
 Вход
ppkBB3cker v.2 © 2008-2014 @ PPK
[ Time : 0.022s | 15 Queries | GZIP : On ]

Торрент трекер RUTOR.IN, Не можете зайти на rutor.org? Какой новый адрес рутор? Какое зеркало рутор? Не работает rutor.org и зеркала? Тогда наш торрент специально для вас. Rutor.in неофициальное зеркало rutor. В случае если у Вас заблокирован rutor или вдруг Вы не можете на него зайти, то Вы без труда сможете скачать бесплатно и без рекламы последние новинки кино, игр, сериалов и прочего у нас, на Rutor.in. Не нужно использовать прокси, чтобы зайти на рутор, достаточно воспользоваться нашим ресурсом. Все новые фильмы, игры, сериалы, книги и музыка за 2013 и 2014 годы через торрент бесплатно. Скачивайте фильмы в хорошем качестве, игры для пк, xbox, playstation без регистрации. У нас вы найдете новые Зарубежные сериалы и Русские сериалы 2013, 2014, 2015 годов. Оставайтесь с нами, качайте любимые фильмы, игры, сериалы, книги и музыку.