img image001 image001 image001 image001 image001 image001 image001 image001 image001 image001 image001 image001 image001 image001 image001

Planets Sun Sun Sun
Статистика раздачи
Автор: PriZraK | Размер: 753.4 МБ | Добавлен: 18 ноя 2016
Раздают: 21    Качают: 0
Скачать торрент
Скачать торрент
Описание торрента

СообщениеДобавлено: 18 ноя 2016 

Информация о фильме
Название: Домовёнок Плюх
Оригинальное название: PLUH: The Cartoon Series
Год выхода: 2014-2015
Страна: Беларусь, Первая КиноВидеоКомпания
Жанр: Мультсериал, детский, рисованный, комедия
Продолжительность: 20 х ~ 00:01:30
Перевод: не требуется
О фильме: Рады представить Вашему вниманию смешного, забавного и остроумного домовёнка Плюха!
Его обожают и дети, и родители — когда на экране шалит Плюх, малыши забывают обо всем на свете, а взрослые радуются минутам тишины и покоя.
Но его призвание — помогать людям! Забыли выключить свет? Плюх его погасит, но устроит в доме феейрверк. Из крана капает вода? Плюх её остановит, но потопа не избежать. Действия домовёнка Плюха зачастую опережают его мысли, но он не глупец. Плюх — добряк с милой улыбкой, которая никогда не сходит с его лица. И свой позитив он дарит зрителям!
01. Лампочка
02. Кран
03. Елка
04. Чулан
05. Новогодний выпуск
06. Мед
07. Чипсы
08. Пузырьки
09. Яблоко
10. Вентилятор
11. Любовь
12. Цветок
13. 8 марта
14. Маятник
15. Мячик
16. Паучок
17. Художник
18. Яйцо
19. Любовь 2
20. Кросс



Доп. информация:
Семпл


Файл
Формат: MP4
Качество: WEB-DL 1080p
Видео: MPEG4-AVC, High@L4, 1920x1080 (16:9), ~ 3 724 Kbps, 25.000 fps
Звук: 48.0 KHz, AAC-LC 2.0, 192 Kbps
Субтитры: нет
8 марта. W-1080p-merci-.mp4
Format : MPEG-4
Format profile : Base Media
Codec ID : isom (isom/mp42)
File size : 42.5 MiB
Duration : 1 min 30 s
Overall bit rate mode : Variable
Overall bit rate : 3 922 kb/s
Encoded date : UTC 2016-11-16 16:59:45
Tagged date : UTC 2016-11-16 16:59:45
Writing application : My MP4Box GUI 0.6.0.6
Video
ID : 1
Format : AVC
Format/Info : Advanced Video Codec
Format profile : High@L4
Format settings, CABAC : Yes
Format settings, ReFrames : 2 frames
Codec ID : avc1
Codec ID/Info : Advanced Video Coding
Duration : 1 min 30 s
Bit rate : 3 724 kb/s
Width : 1 920 pixels
Height : 1 080 pixels
Display aspect ratio : 16:9
Frame rate mode : Constant
Frame rate : 25.000 FPS
Color space : YUV
Chroma subsampling : 4:2:0
Bit depth : 8 bits
Scan type : Progressive
Bits/(Pixel*Frame) : 0.072
Stream size : 40.4 MiB (95%)
Language : English
Encoded date : UTC 2016-11-16 16:59:45
Tagged date : UTC 2016-11-16 16:59:45
Color range : Limited
Color primaries : BT.709
Transfer characteristics : BT.709
Matrix coefficients : BT.709
Audio
ID : 2
Format : AAC
Format/Info : Advanced Audio Codec
Format profile : LC
Codec ID : 40
Duration : 1 min 30 s
Bit rate mode : Variable
Bit rate : 192 kb/s
Channel(s) : 2 channels
Channel positions : Front: L R
Sampling rate : 48.0 kHz
Frame rate : 46.875 FPS (1024 spf)
Compression mode : Lossy
Stream size : 2.08 MiB (5%)
Language : English
Encoded date : UTC 2016-11-16 16:59:45
Tagged date : UTC 2016-11-16 16:59:45
mdhd_Duration : 90965


Релиз от:
Автор релиза: /



   Похожие торренты   Торрент   Размер 
В этой теме нет новых непрочитанных сообщений. Домовёнок Плюх / PLUH [01x01-20] (2014-2015) WEB-DLRip от ExKinoRay

21 | 0

307.11 МБ

В этой теме нет новых непрочитанных сообщений. Домовёнок Плюх / PLUH [01x01-20] (2014-2015) WEB-DL 720p от ExKinoRay

6 | 0

511.73 МБ

В этой теме нет новых непрочитанных сообщений. Slim (CENTR) feat. 5 Плюх - Бывшая (Правильно) [Клип] (2012) WEBRip 1080p

2 | 5

194 МБ

В этой теме нет новых непрочитанных сообщений. 10 друзей Кролика [01x01-20 из 92] (2015) WEB-DL 1080p от ExKinoRay

28 | 15

3.16 ГБ

В этой теме нет новых непрочитанных сообщений. Ми-ми-мишки [01x01-70,99,100 из 104] (2015-2016) WEB-DLRip 1080p от ExKinoRay

0 | 0

5.74 ГБ

В этой теме нет новых непрочитанных сообщений. Ми-ми-мишки [01x01-70,99,100 из 104] (2015-2016) WEB-DLRip 1080p от ExKinoRay

9 | 0

5.58 ГБ

В этой теме нет новых непрочитанных сообщений. Ми-ми-мишки [01x01-70,99,100 из 104] (2015-2016) WEB-DLRip 1080p от ExKinoRay

3 | 2

5.94 ГБ




Вы не можете начинать темы
Вы не можете отвечать на сообщения
Вы не можете редактировать свои сообщения
Вы не можете удалять свои сообщения
Вы не можете добавлять вложения

Перейти:  
Для Мосгорсуда, Роскомнадзора и рекламодателей: mosgorsud-torrent[собачка]yandex.ru
 Вход
ppkBB3cker v.2 © 2008-2014 @ PPK
[ Time : 0.044s | 16 Queries | GZIP : Off ]

cron