img image001 image001 image001 image001 image001 image001 image001 image001 image001 image001 image001 image001 image001 image001 image001

Planets Sun Sun Sun
Статистика раздачи
Автор: PriZraK | Размер: 307.11 МБ | Добавлен: 18 ноя 2016
Раздают: 21    Качают: 0
Скачать торрент
Скачать торрент
Описание торрента

СообщениеДобавлено: 18 ноя 2016 

Информация о фильме
Название: Домовёнок Плюх
Оригинальное название: PLUH: The Cartoon Series
Год выхода: 2014-2015
Страна: Беларусь, Первая КиноВидеоКомпания
Жанр: Мультсериал, детский, рисованный, комедия
Продолжительность: 20 х ~ 00:01:30
Перевод: не требуется
О фильме: Рады представить Вашему вниманию смешного, забавного и остроумного домовёнка Плюха!
Его обожают и дети, и родители — когда на экране шалит Плюх, малыши забывают обо всем на свете, а взрослые радуются минутам тишины и покоя.
Но его призвание — помогать людям! Забыли выключить свет? Плюх его погасит, но устроит в доме феейрверк. Из крана капает вода? Плюх её остановит, но потопа не избежать. Действия домовёнка Плюха зачастую опережают его мысли, но он не глупец. Плюх — добряк с милой улыбкой, которая никогда не сходит с его лица. И свой позитив он дарит зрителям!
01. Лампочка
02. Кран
03. Елка
04. Чулан
05. Новогодний выпуск
06. Мед
07. Чипсы
08. Пузырьки
09. Яблоко
10. Вентилятор
11. Любовь
12. Цветок
13. 8 марта
14. Маятник
15. Мячик
16. Паучок
17. Художник
18. Яйцо
19. Любовь 2
20. Кросс



Доп. информация:
Семпл


Файл
Формат: AVI
Качество: WEB-DLRip
Видео: 720x400 (1.80:1), 25 fps, XviD build 65 ~1476 kbps avg, 0.21 bit/pixel
Звук: 48 kHz, AC3 Dolby Digital, 2/0 (L,R) ch, ~192.00 kbps avg
Субтитры: нет
04. Чулан. W-XviD-merci-.avi
Format : AVI
Format/Info : Audio Video Interleave
File size : 18.0 MiB
Duration : 1 min 29 s
Overall bit rate : 1 679 kb/s
Writing application : VirtualDubMod 1.5.10.3 | www.virtualdub-fr.org || (build 2550/release)
Writing library : VirtualDubMod build 2550/release
Video
ID : 0
Format : MPEG-4 Visual
Format profile : Advanced Simple@L5
Format settings, BVOP : 1
Format settings, QPel : No
Format settings, GMC : No warppoints
Format settings, Matrix : Default (MPEG)
Codec ID : XVID
Codec ID/Hint : XviD
Duration : 1 min 29 s
Bit rate : 1 476 kb/s
Width : 720 pixels
Height : 400 pixels
Display aspect ratio : 16:9
Frame rate : 25.000 FPS
Color space : YUV
Chroma subsampling : 4:2:0
Bit depth : 8 bits
Scan type : Progressive
Compression mode : Lossy
Bits/(Pixel*Frame) : 0.205
Stream size : 15.8 MiB (88%)
Writing library : XviD 65
Audio
ID : 1
Format : AC-3
Format/Info : Audio Coding 3
Mode extension : CM (complete main)
Format settings, Endianness : Big
Codec ID : 2000
Duration : 1 min 29 s
Bit rate mode : Constant
Bit rate : 192 kb/s
Channel(s) : 2 channels
Channel positions : Front: L R
Sampling rate : 48.0 kHz
Frame rate : 31.250 FPS (1536 spf)
Bit depth : 16 bits
Compression mode : Lossy
Stream size : 2.06 MiB (11%)
Alignment : Split accross interleaves
Interleave, duration : 40 ms (1.00 video frame)
Interleave, preload duratio : 500 ms


Релиз от:
Автор релиза: /



   Похожие торренты   Торрент   Размер 
В этой теме нет новых непрочитанных сообщений. Домовёнок Плюх / PLUH [01x01-20] (2014-2015) WEB-DL 720p от ExKinoRay

12 | 0

511.73 МБ

В этой теме нет новых непрочитанных сообщений. Домовёнок Плюх / PLUH [01x01-20] (2014-2015) WEB-DL 1080p от ExKinoRay

28 | 5

753.4 МБ

В этой теме нет новых непрочитанных сообщений. Ми-ми-мишки [01x01-70,99,100 из 104] (2015-2016) WEB-DLRip от ExKinoRay

31 | 13

3.81 ГБ

В этой теме нет новых непрочитанных сообщений. Зверинец / Zoo [01x01-02 из 13] (2015) WEB-DLRip-AVC от ExKinoray | BaibaKo

434 | 79

1.84 ГБ

В этой теме нет новых непрочитанных сообщений. Ми-ми-мишки [01x01-70,99,100 из 104] (2015-2016) WEB-DLRip от ExKinoRay

11 | 23

3.92 ГБ

В этой теме нет новых непрочитанных сообщений. Зверинец / Zoo [01x01-04 из 13] (2015) WEB-DLRip-AVC от ExKinoray | BaibaKo

64 | 17

3.75 ГБ

В этой теме нет новых непрочитанных сообщений. Зверинец / Zoo [01x01-04 из 13] (2015) WEB-DLRip-AVC от ExKinoray | BaibaKo

76 | 27

3.73 ГБ




Вы не можете начинать темы
Вы не можете отвечать на сообщения
Вы не можете редактировать свои сообщения
Вы не можете удалять свои сообщения
Вы не можете добавлять вложения

Перейти:  
Для Мосгорсуда, Роскомнадзора и рекламодателей: mosgorsud-torrent[собачка]yandex.ru
 Вход
ppkBB3cker v.2 © 2008-2014 @ PPK
[ Time : 0.227s | 17 Queries | GZIP : Off ]

Торрент трекер RUTOR.IN, Не можете зайти на rutor.org? Какой новый адрес рутор? Какое зеркало рутор? Не работает rutor.org и зеркала? Тогда наш торрент специально для вас. Rutor.in неофициальное зеркало rutor. В случае если у Вас заблокирован rutor или вдруг Вы не можете на него зайти, то Вы без труда сможете скачать бесплатно и без рекламы последние новинки кино, игр, сериалов и прочего у нас, на Rutor.in. Не нужно использовать прокси, чтобы зайти на рутор, достаточно воспользоваться нашим ресурсом. Все новые фильмы, игры, сериалы, книги и музыка за 2013 и 2014 годы через торрент бесплатно. Скачивайте фильмы в хорошем качестве, игры для пк, xbox, playstation без регистрации. У нас вы найдете новые Зарубежные сериалы и Русские сериалы 2013, 2014, 2015 годов. Оставайтесь с нами, качайте любимые фильмы, игры, сериалы, книги и музыку.
cron