img image001 image001 image001 image001 image001 image001 image001 image001 image001 image001 image001 image001 image001 image001 image001

Planets Sun Sun Sun
Статистика раздачи
Автор: PriZraK | Размер: 1.42 ГБ | Добавлен: 18 ноя 2016
Раздают: 28    Качают: 5
Скачать торрент
Скачать торрент
Описание торрента

СообщениеДобавлено: 18 ноя 2016 

Информация о фильме
Название: Тайная жизнь домашних животных
Оригинальное название: The Secret Life of Pets
Год выпуска: 2016
Жанр: мультфильм, комедия, семейный
Режиссеры: Ярроу Чейни , Крис Рено
В ролях: Луис С.К. (Max, озвучка), Эрик Стоунстрит (Duke, озвучка), Кевин Харт (Snowball, озвучка), Дженни Слейт (Gidget, озвучка), Элли Кемпер (Katie, озвучка), Альберт Брукс (Tiberius, озвучка), Лэйк Белл (Chloe, озвучка), Дэна Карви (Pops, озвучка), Хэннибал Бёресс (Buddy, озвучка), Бобби Мойнахан (Mel, озвучка), Крис Рено (Norman, озвучка), Стив Куган (Ozone / Reginald, озвучка)
О фильме:
Что делают домашние животные пока хозяева пропадают на работе? С тоской смотрят в окно? Смиренно дремлют на коврике у двери? Как бы не так. Они ведут свою тайную жизнь.

Выпущено: Япония, США, Dentsu / Fuji Television Network Inc., Illumination Entertainment, Universal Pictures
Продолжительность: 01:26:27
Перевод: Профессиональный (полное дублирование) [iTunes]
Файл
Кодек: х264
Качество: BDRip-AVC
Видео: MPEG-4 AVC, 1966 Кбит/с, 720x388
Аудио: AC3, 48.0 KHz, 6 ch, 384 Kbps, CBR (русский, iTunes)
Субтитры: Русские (форсированные), английские (полные и SDH) вшитые / UTF-8
Общее
Уникальный идентификатор : 198648051540844581801607406811830632557 (0x9572391C24753BF6B011F8BAE255406D)
Полное имя : D:ВидеоThe.Secret.Life.of.Pets.2016.BDRip-AVC by ExKinoRay .mkv
Формат : Matroska
Версия формата : Version 4 / Version 2
Размер файла : 1,42 Гбайт
Продолжительность : 1 ч. 26 м.
Общий поток : 2350 Кбит/сек
Название фильма : The.Secret.Life.of.Pets.2016.BDRip-AVC by Vovan366
Дата кодирования : UTC 2016-11-17 13:37:57
Программа кодирования : mkvmerge v9.5.0 ('Quiet Fire') 64bit
Библиотека кодирования : libebml v1.3.4 + libmatroska v1.4.5
DURATION : 01:12:50.960000000
NUMBER_OF_FRAMES : 17
NUMBER_OF_BYTES : 645
_STATISTICS_WRITING_APP : mkvmerge v9.5.0 ('Quiet Fire') 64bit
_STATISTICS_WRITING_DATE_UTC : 2016-11-17 13:37:57
_STATISTICS_TAGS : BPS DURATION NUMBER_OF_FRAMES NUMBER_OF_BYTES
Видео
Идентификатор : 1
Формат : AVC
Формат/Информация : Advanced Video Codec
Профиль формата : High@L4.1
Параметр CABAC формата : Да
Параметр ReFrames формата : 10 кадров
Идентификатор кодека : V_MPEG4/ISO/AVC
Продолжительность : 1 ч. 26 м.
Битрейт : 1966 Кбит/сек
Ширина : 720 пикселей
Высота : 388 пикселей
Соотношение сторон : 1,85:1
Режим частоты кадров : Постоянный
Частота кадров : 23,976 кадра/сек
Цветовое пространство : YUV
Субдискретизация насыщенности : 4:2:0
Битовая глубина : 8 бит
Тип развёртки : Прогрессивная
Бит/(Пиксели*Кадры) : 0.294
Размер потока : 1,16 Гбайт (82%)
Заголовок : by ExKinoRay
Библиотека кодирования : x264 core 146 r2538 121396c
Настройки программы : cabac=1 / ref=10 / deblock=1:-3:-3 / analyse=0x3:0x113 / me=umh / subme=11 / psy=1 / psy_rd=1.00:0.05 / mixed_ref=1 / me_range=48 / chroma_me=1 / trellis=2 / 8x8dct=1 / cqm=0 / deadzone=21,11 / fast_pskip=0 / chroma_qp_offset=-3 / threads=6 / lookahead_threads=1 / sliced_threads=0 / nr=0 / decimate=0 / interlaced=0 / bluray_compat=0 / constrained_intra=0 / bframes=10 / b_pyramid=2 / b_adapt=2 / b_bias=0 / direct=3 / weightb=1 / open_gop=0 / weightp=2 / keyint=240 / keyint_min=23 / scenecut=40 / intra_refresh=0 / rc_lookahead=40 / rc=2pass / mbtree=0 / bitrate=1966 / ratetol=1.0 / qcomp=0.60 / qpmin=0 / qpmax=69 / qpstep=4 / cplxblur=20.0 / qblur=0.5 / vbv_maxrate=14000 / vbv_bufsize=14000 / nal_hrd=none / filler=0 / ip_ratio=1.40 / pb_ratio=1.30 / aq=1:1.00
Default : Да
Forced : Нет
Аудио
Идентификатор : 2
Формат : AC-3
Формат/Информация : Audio Coding 3
Расширение режима : CM (complete main)
Параметр Endianness формата : Big
Идентификатор кодека : A_AC3
Продолжительность : 1 ч. 26 м.
Вид битрейта : Постоянный
Битрейт : 384 Кбит/сек
Каналы : 6 каналов
Расположение каналов : Front: L C R, Side: L R, LFE
Частота : 48,0 КГц
Битовая глубина : 16 бит
Метод сжатия : С потерями
Задержка видео : 22 мс.
Размер потока : 237 Мбайт (16%)
Заголовок : Dub | DD 5.1 @ 384 kbps - iTunes
Язык : Russian
Default : Да
Forced : Нет
Текст #1
Идентификатор : 3
Формат : UTF-8
Идентификатор кодека : S_TEXT/UTF8
Идентификатор кодека/Информация : UTF-8 Plain Text
Заголовок : Forced
Язык : Russian
Default : Да
Forced : Нет
Текст #2
Идентификатор : 4
Формат : UTF-8
Идентификатор кодека : S_TEXT/UTF8
Идентификатор кодека/Информация : UTF-8 Plain Text
Заголовок : Full
Язык : English
Default : Нет
Forced : Нет
Текст #3
Идентификатор : 5
Формат : UTF-8
Идентификатор кодека : S_TEXT/UTF8
Идентификатор кодека/Информация : UTF-8 Plain Text
Заголовок : SDH
Язык : English
Default : Нет
Forced : Нет
Меню
00:00:00.000 : en:00:00:00.000
00:05:05.847 : en:00:05:05.847
00:09:24.063 : en:00:09:24.063
00:13:18.840 : en:00:13:18.840
00:18:03.666 : en:00:18:03.666
00:22:14.458 : en:00:22:14.458
00:28:51.855 : en:00:28:51.855
00:32:54.848 : en:00:32:54.848
00:36:55.839 : en:00:36:55.839
00:42:27.295 : en:00:42:27.295
00:44:46.767 : en:00:44:46.767
00:50:21.227 : en:00:50:21.227
00:54:45.407 : en:00:54:45.407
00:59:33.987 : en:00:59:33.987
01:02:36.544 : en:01:02:36.544
01:07:12.362 : en:01:07:12.362
01:13:06.841 : en:01:13:06.841
01:16:04.602 : en:01:16:04.602
01:18:48.057 : en:01:18:48.057
01:19:58.836 : en:01:19:58.836



Релиз от:
Rip by: Vovan366



   Похожие торренты   Торрент   Размер 
В этой теме нет новых непрочитанных сообщений. Тайная жизнь домашних животных / The Secret Life of Pets (2016) BDRip 1080p от ExKinoRay | iTunes

10 | 2

9.17 ГБ

В этой теме нет новых непрочитанных сообщений. Тайная жизнь домашних животных / The Secret Life of Pets (2016) BDRip 720p от ExKinoRay | iTunes

10 | 4

4.43 ГБ

В этой теме нет новых непрочитанных сообщений. Тайная жизнь домашних животных / The Secret Life of Pets (2016) BDRemux 1080p от ExKinoRay | iTunes

3 | 2

17.53 ГБ

В этой теме нет новых непрочитанных сообщений. Тайная жизнь домашних животных / The Secret Life of Pets (2016) BDRemux 1080p от ExKinoRay | 3D-Video | iTunes

0 | 3

32.04 ГБ

В этой теме нет новых непрочитанных сообщений. Тайная жизнь домашних животных / The Secret Life of Pets (2016) BDRip-AVC от ExKinoRay | Лицензия

98 | 14

1.46 ГБ

В этой теме нет новых непрочитанных сообщений. Тайная жизнь домашних животных / The Secret Life of Pets (2016) BDRip от ExKinoRay | Лицензия

12 | 8

1.46 ГБ

В этой теме нет новых непрочитанных сообщений. Тайная жизнь домашних животных / The Secret Life of Pets (2016) BDRip-AVC от HELLYWOOD | iTunes

33 | 2

1.46 ГБ




Вы не можете начинать темы
Вы не можете отвечать на сообщения
Вы не можете редактировать свои сообщения
Вы не можете удалять свои сообщения
Вы не можете добавлять вложения

Перейти:  
Для Мосгорсуда, Роскомнадзора и рекламодателей: mosgorsud-torrent[собачка]yandex.ru
 Вход
ppkBB3cker v.2 © 2008-2014 @ PPK
[ Time : 0.035s | 16 Queries | GZIP : Off ]

cron