img image001 image001 image001 image001 image001 image001 image001 image001 image001 image001 image001 image001 image001 image001 image001

Planets Sun Sun Sun
Статистика раздачи
Автор: Nickolas3434 | Размер: 5.78 ГБ | Добавлен: 19 ноя 2016
Раздают: 87    Качают: 7
Скачать торрент
Скачать торрент
Описание торрента

СообщениеДобавлено: 19 ноя 2016 


Информация о фильме
    Русское название: В поисках Дори
    Оригинальное название: Finding Dory
    Год выхода: 2016
    Жанр: мультфильм, комедия, приключения, семейный
    Режиссер: Эндрю Стэнтон, Энгус МакЛэйн
    Выпущено: США
    Продолжительность: 01:37:03
    Перевод: Дублированный
    Роли озвучивали: Эллен ДеДженерес, Альберт Брукс, Эд О’Нил, Кэйтлин Олсон, Хайден Роуленс, Тай Бурелл, Дайан Китон, Юджин Леви, Слоун Мюррэй, Идрис Эльба и др.
    Роли дублировали: Елена Шульман, Константин Карасик, Сергей Чихачев, Софья Ануфриева, Георгий Клопов, Диомид Виноградов, Елена Солодилина, Андрей Вальц и др.


Сюжет фильма
    Дори — синяя доброжелательная рыбка-хирург, страдающая провалами в памяти. Она упорно стремится избавиться от своего недуга и найти свою семью.


Файл
    Качество: BDRip 1080p (исходник Blu-ray Disc)
    Формат: MKV
    Видео: 1920x1080, 7212 Кбит/сек, 23,976 кадр/сек, AVC, x264, High@L4.1, 16:9, 0.145 Бит/[Пиксели*Кадры]
    Аудио 1: AC-3, 640 Кбит/сек, 6 канала(ов), 48,0 КГц - Дублированный / Русский
    Аудио 2: AC-3, 640 Кбит/сек, 6 канала(ов), 48,0 КГц - Оригинал / Английский
    Субтитры: Русские | Полные, Английские | Полные
    Форсированные субтитры: Нет
    Чаптеры (Главы): Есть



Автор Рипа: Группа:



Format : Matroska
Format version : Version 2
File size : 5.78 GiB
Duration : 1 h 37 min
Overall bit rate : 8 526 kb/s
Movie name : Finding Dory.(2016).BDRip.1080p.[envy]
Encoded date : UTC 2016-11-19 04:28:37
Writing application : mkvmerge v5.8.0 ('No Sleep / Pillow') built on Sep 2 2012 15:37:04
Writing library : libebml v1.2.3 + libmatroska v1.3.0
Video
ID : 1
Format : AVC
Format/Info : Advanced Video Codec
Format profile : High@L4.1
Format settings, CABAC : Yes
Format settings, ReFrames : 4 frames
Codec ID : V_MPEG4/ISO/AVC
Duration : 1 h 37 min
Bit rate : 7 212 kb/s
Width : 1 920 pixels
Height : 1 080 pixels
Display aspect ratio : 16:9
Frame rate mode : Constant
Frame rate : 23.976 (24000/1001) FPS
Color space : YUV
Chroma subsampling : 4:2:0
Bit depth : 8 bits
Scan type : Progressive
Bits/(Pixel*Frame) : 0.145
Stream size : 4.80 GiB (83%)
Title : Finding Dory.(2016).BDRip.1080p.[envy]
Writing library : x264 core 148 r2721 72d53ab
Encoding settings : cabac=1 / ref=4 / deblock=1:-1:-1 / analyse=0x3:0x113 / me=umh / subme=11 / psy=1 / psy_rd=1.00:0.00 / mixed_ref=1 / me_range=32 / chroma_me=1 / trellis=2 / 8x8dct=1 / cqm=0 / deadzone=21,11 / fast_pskip=0 / chroma_qp_offset=-2 / threads=12 / lookahead_threads=2 / sliced_threads=0 / nr=0 / decimate=1 / interlaced=0 / bluray_compat=0 / constrained_intra=0 / bframes=7 / b_pyramid=2 / b_adapt=2 / b_bias=0 / direct=3 / weightb=1 / open_gop=0 / weightp=2 / keyint=240 / keyint_min=23 / scenecut=40 / intra_refresh=0 / rc=2pass / mbtree=0 / bitrate=7212 / ratetol=2.0 / qcomp=0.60 / qpmin=0 / qpmax=69 / qpstep=4 / cplxblur=20.0 / qblur=0.5 / ip_ratio=1.40 / pb_ratio=1.30 / aq=2:0.90
Language : English
Default : Yes
Forced : No
Audio #1
ID : 2
Format : AC-3
Format/Info : Audio Coding 3
Mode extension : CM (complete main)
Format settings, Endianness : Big
Codec ID : A_AC3
Duration : 1 h 37 min
Bit rate mode : Constant
Bit rate : 640 kb/s
Channel(s) : 6 channels
Channel positions : Front: L C R, Side: L R, LFE
Sampling rate : 48.0 kHz
Frame rate : 31.250 FPS (1536 spf)
Compression mode : Lossy
Stream size : 444 MiB (8%)
Title : Dub
Language : Russian
Default : Yes
Forced : No
Audio #2
ID : 3
Format : AC-3
Format/Info : Audio Coding 3
Mode extension : CM (complete main)
Format settings, Endianness : Big
Codec ID : A_AC3
Duration : 1 h 37 min
Bit rate mode : Constant
Bit rate : 640 kb/s
Channel(s) : 6 channels
Channel positions : Front: L C R, Side: L R, LFE
Sampling rate : 48.0 kHz
Frame rate : 31.250 FPS (1536 spf)
Compression mode : Lossy
Stream size : 444 MiB (8%)
Title : Eng
Language : English
Default : No
Forced : No
Text #1
ID : 4
Format : UTF-8
Codec ID : S_TEXT/UTF8
Codec ID/Info : UTF-8 Plain Text
Title : Rus full
Language : Russian
Default : No
Forced : No
Text #2
ID : 5
Format : UTF-8
Codec ID : S_TEXT/UTF8
Codec ID/Info : UTF-8 Plain Text
Title : Eng full
Language : English
Default : No
Forced : No
Menu
00:00:00.000 : :Chapter 01
00:02:35.738 : :Chapter 02
00:06:50.243 : :Chapter 03
00:10:53.194 : :Chapter 04
00:13:33.187 : :Chapter 05
00:15:25.132 : :Chapter 06
00:17:03.313 : :Chapter 07
00:19:35.465 : :Chapter 08
00:21:35.293 : :Chapter 09
00:24:58.705 : :Chapter 10
00:27:08.543 : :Chapter 11
00:30:33.206 : :Chapter 12
00:35:00.264 : :Chapter 13
00:37:52.019 : :Chapter 14
00:40:17.998 : :Chapter 15
00:41:06.672 : :Chapter 16
00:42:30.422 : :Chapter 17
00:46:03.427 : :Chapter 18
00:48:41.710 : :Chapter 19
00:50:27.857 : :Chapter 20
00:55:06.678 : :Chapter 21
00:57:05.838 : :Chapter 22
01:00:41.345 : :Chapter 23
01:04:32.952 : :Chapter 24
01:10:36.815 : :Chapter 25
01:12:28.301 : :Chapter 26
01:14:09.861 : :Chapter 27
01:18:26.493 : :Chapter 28
01:26:49.328 : :Chapter 29
01:37:03.400 : :Chapter 30




   Похожие торренты   Торрент   Размер 
В этой теме нет новых непрочитанных сообщений. В поисках Дори / Finding Dory (2016) Blu-Ray 1080p | 3D-Video | Локализованный видеоряд | Лицензия

13 | 8

39.42 ГБ

В этой теме нет новых непрочитанных сообщений. В поисках Дори / Finding Dory (2016) BDRemux 1080p от ExKinoRay | Локализованный видеоряд | Лицензия

1 | 5

19.53 ГБ

В этой теме нет новых непрочитанных сообщений. В поисках Дори / Finding Dory (2016) BDRemux 1080p от ExKinoRay | 3D-Video | Локализованный видеоряд | Лицензия

4 | 5

23.36 ГБ

В этой теме нет новых непрочитанных сообщений. В поисках Дори / Finding Dory (2016) HDRip от MegaPeer | Локализованный видеоряд | Лицензия

33 | 12

745.29 МБ

В этой теме нет новых непрочитанных сообщений. В поисках Дори / Finding Dory (2016) HDRip от MegaPeer | Локализованный видеоряд | Лицензия

84 | 9

1.46 ГБ

В этой теме нет новых непрочитанных сообщений. В поисках Дори / Finding Dory (2016) BDRip 1080p | Лицензия

14 | 9

12.46 ГБ

В этой теме нет новых непрочитанных сообщений. В поисках Дори / Finding Dory (2016) BDRip 1080p от HQCLUB | D | Лицензия

15 | 6

13.01 ГБ




Вы не можете начинать темы
Вы не можете отвечать на сообщения
Вы не можете редактировать свои сообщения
Вы не можете удалять свои сообщения
Вы не можете добавлять вложения

Перейти:  
Для Мосгорсуда, Роскомнадзора и рекламодателей: mosgorsud-torrent[собачка]yandex.ru
 Вход
ppkBB3cker v.2 © 2008-2014 @ PPK
[ Time : 0.040s | 16 Queries | GZIP : Off ]

cron