img image001 image001 image001 image001 image001 image001 image001 image001 image001 image001 image001 image001 image001 image001 image001

Planets Sun Sun Sun
Статистика раздачи
Автор: Nickolas3434 | Размер: 238.13 МБ | Добавлен: 21 ноя 2016
Раздают: 70    Качают: 1
Скачать торрент
Скачать торрент
Описание торрента

СообщениеДобавлено: 21 ноя 2016 

Информация о фильме
Оригинальное название: Маша и Медведь: К вашим услугам!
Год выхода: 2016
Страна: Россия, Студия "Анимаккорд"
Жанр: Мультсериал, сказка, детский, семейный
Продолжительность: 00:07:56
Язык: русский
Режиссер: Наталья Мальгина
Режиссёр озвучивания: Алина Кукушкина
Роли озвучивали:
Маша - Варвара Саранцева
Медведь / Робот Медведя - Борис Кутневич
Машуко - Алина Кукушкина
О фильме:
История двух роботов – один подарен Маше и был всего лишь продвинутой куклой, другой был сделан Медведем для домашних дел, но попытался стать главным в доме, и только его неожиданно проснувшееся чувство к Машиной кукле поставило все на свои места.




Файл
Формат: MKV
Качество: WEB-DL 720p
Видео: MPEG4-AVC, High@L3.1, 1280x720 (16:9), ~ 3 919 Kbps, 25.000 fps
Звук: 48.0 KHz, AC3 2.0, 192 Kbps
Субтитры: нет
60. К вашим услугам! WEB-DL.720p.-merci-.mkv
Format : Matroska
Format version : Version 2
File size : 238 MiB
Duration : 7 min 56 s
Overall bit rate : 4 194 kb/s
Movie name : Маша и Медведь (WEB-DL) / 2016 / -merci-
Encoded date : UTC 2016-11-20 01:16:17
Writing application : mkvmerge v5.8.0 ('No Sleep / Pillow') built on Sep 2 2012 15:37:04
Writing library : libebml v1.2.3 + libmatroska v1.3.0
Video
ID : 1
Format : AVC
Format/Info : Advanced Video Codec
Format profile : High@L3.1
Format settings, CABAC : Yes
Format settings, ReFrames : 3 frames
Codec ID : V_MPEG4/ISO/AVC
Duration : 7 min 56 s
Bit rate : 3 919 kb/s
Width : 1 280 pixels
Height : 720 pixels
Display aspect ratio : 16:9
Frame rate mode : Constant
Frame rate : 25.000 FPS
Color space : YUV
Chroma subsampling : 4:2:0
Bit depth : 8 bits
Scan type : Progressive
Bits/(Pixel*Frame) : 0.170
Stream size : 222 MiB (93%)
Title : 60. К вашим услугам! WEB-DL.720p.x264.-merci-
Language : Russian
Default : Yes
Forced : No
Color range : Limited
Color primaries : BT.709
Transfer characteristics : BT.709
Matrix coefficients : BT.709
Audio
ID : 2
Format : AC-3
Format/Info : Audio Coding 3
Mode extension : CM (complete main)
Format settings, Endianness : Big
Codec ID : A_AC3
Duration : 7 min 56 s
Bit rate mode : Constant
Bit rate : 192 kb/s
Channel(s) : 2 channels
Channel positions : Front: L R
Sampling rate : 48.0 kHz
Frame rate : 31.250 FPS (1536 spf)
Bit depth : 16 bits
Compression mode : Lossy
Stream size : 10.9 MiB (5%)
Title : rus
Language : Russian
Default : Yes
Forced : No


Релиз от:
Автор релиза: /



   Похожие торренты   Торрент   Размер 
В этой теме нет новых непрочитанных сообщений. Маша и медведь: К вашим услугам! [60] (2016) WEB-DLRip от ExKinoRay

125 | 1

125.56 МБ

В этой теме нет новых непрочитанных сообщений. Маша и медведь: К вашим услугам! [60] (2016) WEB-DL 1080p от ExKinoRay

132 | 2

295.27 МБ

В этой теме нет новых непрочитанных сообщений. Маша и медведь: К вашим услугам! [60] (2016) WEB-DL 720p от GeneralFilm

85 | 1

121.59 МБ

В этой теме нет новых непрочитанных сообщений. Маша и медведь: К вашим услугам! [60] (2016) WEB-DL 1080p от GeneralFilm

197 | 2

218.15 МБ

В этой теме нет новых непрочитанных сообщений. Маша и медведь: К вашим услугам! [60] (2016) WEB-DLRip от GeneralFilm

169 | 0

113.69 МБ

В этой теме нет новых непрочитанных сообщений. Маша и медведь: Game Over [59] (2016) WEB-DL 720p от ExKinoRay

174 | 4

223.29 МБ

В этой теме нет новых непрочитанных сообщений. Маша и медведь: На привале [57] (2016) WEB-DL 720p от ExKinoRay

105 | 2

223.05 МБ




Вы не можете начинать темы
Вы не можете отвечать на сообщения
Вы не можете редактировать свои сообщения
Вы не можете удалять свои сообщения
Вы не можете добавлять вложения

Перейти:  
Для Мосгорсуда, Роскомнадзора и рекламодателей: mosgorsud-torrent[собачка]yandex.ru
 Вход
ppkBB3cker v.2 © 2008-2014 @ PPK
[ Time : 0.024s | 14 Queries | GZIP : Off ]
CGP output time : 0.036s | 5 Queries | GZIP : Off

Торрент трекер RUTOR.IN, Не можете зайти на rutor.org? Какой новый адрес рутор? Какое зеркало рутор? Не работает rutor.org и зеркала? Тогда наш торрент специально для вас. Rutor.in неофициальное зеркало rutor. В случае если у Вас заблокирован rutor или вдруг Вы не можете на него зайти, то Вы без труда сможете скачать бесплатно и без рекламы последние новинки кино, игр, сериалов и прочего у нас, на Rutor.in. Не нужно использовать прокси, чтобы зайти на рутор, достаточно воспользоваться нашим ресурсом. Все новые фильмы, игры, сериалы, книги и музыка за 2013 и 2014 годы через торрент бесплатно. Скачивайте фильмы в хорошем качестве, игры для пк, xbox, playstation без регистрации. У нас вы найдете новые Зарубежные сериалы и Русские сериалы 2013, 2014, 2015 годов. Оставайтесь с нами, качайте любимые фильмы, игры, сериалы, книги и музыку.