img image001 image001 image001 image001 image001 image001 image001 image001 image001 image001 image001 image001 image001 image001 image001

Planets Sun Sun Sun
Статистика раздачи
Автор: Nickolas3434 | Размер: 125.56 МБ | Добавлен: 21 ноя 2016
Раздают: 72    Качают: 0
Скачать торрент
Скачать торрент
Описание торрента

СообщениеДобавлено: 21 ноя 2016 

Информация о фильме
Оригинальное название: Маша и Медведь: К вашим услугам!
Год выхода: 2016
Страна: Россия, Студия "Анимаккорд"
Жанр: Мультсериал, сказка, детский, семейный
Продолжительность: 00:07:56
Язык: русский
Режиссер: Наталья Мальгина
Режиссёр озвучивания: Алина Кукушкина
Роли озвучивали:
Маша - Варвара Саранцева
Медведь / Робот Медведя - Борис Кутневич
Машуко - Алина Кукушкина
О фильме:
История двух роботов – один подарен Маше и был всего лишь продвинутой куклой, другой был сделан Медведем для домашних дел, но попытался стать главным в доме, и только его неожиданно проснувшееся чувство к Машиной кукле поставило все на свои места.




Файл
Формат: AVI
Качество: WEB-DLRip
Видео: 720x400 (1.80:1), 25 fps, XviD build 65 ~2009 kbps avg, 0.28 bit/pixel
Звук: 48 kHz, AC3 Dolby Digital, 2/0 (L,R) ch, ~192.00 kbps avg
Субтитры: нет
60. К вашим услугам! XviD-merci-.avi
Format : AVI
Format/Info : Audio Video Interleave
File size : 126 MiB
Duration : 7 min 56 s
Overall bit rate : 2 212 kb/s
Writing application : VirtualDubMod 1.5.10.3 | www.virtualdub-fr.org || (build 2550/release)
Writing library : VirtualDubMod build 2550/release
Video
ID : 0
Format : MPEG-4 Visual
Format profile : Advanced Simple@L5
Format settings, BVOP : 1
Format settings, QPel : No
Format settings, GMC : No warppoints
Format settings, Matrix : Default (MPEG)
Codec ID : XVID
Codec ID/Hint : XviD
Duration : 7 min 56 s
Bit rate : 2 010 kb/s
Width : 720 pixels
Height : 400 pixels
Display aspect ratio : 16:9
Frame rate : 25.000 FPS
Color space : YUV
Chroma subsampling : 4:2:0
Bit depth : 8 bits
Scan type : Progressive
Compression mode : Lossy
Bits/(Pixel*Frame) : 0.279
Stream size : 114 MiB (91%)
Writing library : XviD 65
Audio
ID : 1
Format : AC-3
Format/Info : Audio Coding 3
Mode extension : CM (complete main)
Format settings, Endianness : Big
Codec ID : 2000
Duration : 7 min 56 s
Bit rate mode : Constant
Bit rate : 192 kb/s
Channel(s) : 2 channels
Channel positions : Front: L R
Sampling rate : 48.0 kHz
Frame rate : 31.250 FPS (1536 spf)
Bit depth : 16 bits
Compression mode : Lossy
Stream size : 10.9 MiB (9%)
Alignment : Split accross interleaves
Interleave, duration : 40 ms (1.00 video frame)
Interleave, preload duratio : 500 ms


Релиз от:
Автор релиза: /



   Похожие торренты   Торрент   Размер 
В этой теме нет новых непрочитанных сообщений. Маша и медведь: К вашим услугам! [60] (2016) WEB-DL 720p от ExKinoRay

7 | 0

238.13 МБ

В этой теме нет новых непрочитанных сообщений. Маша и медведь: К вашим услугам! [60] (2016) WEB-DL 1080p от ExKinoRay

34 | 0

295.27 МБ

В этой теме нет новых непрочитанных сообщений. Маша и медведь: К вашим услугам! [60] (2016) WEB-DLRip от GeneralFilm

41 | 0

113.69 МБ

В этой теме нет новых непрочитанных сообщений. Маша и медведь: К вашим услугам! [60] (2016) WEB-DL 1080p от GeneralFilm

18 | 0

218.15 МБ

В этой теме нет новых непрочитанных сообщений. Маша и медведь: К вашим услугам! [60] (2016) WEB-DL 720p от GeneralFilm

22 | 3

121.59 МБ

В этой теме нет новых непрочитанных сообщений. Маша и медведь: На привале [57] (2016) WEB-DLRip-AVC от ExKinoRay

125 | 2

113.96 МБ

В этой теме нет новых непрочитанных сообщений. Маша и медведь: Game Over [59] (2016) WEB-DLRip-AVC от ExKinoRay

12 | 1

117.89 МБ




Вы не можете начинать темы
Вы не можете отвечать на сообщения
Вы не можете редактировать свои сообщения
Вы не можете удалять свои сообщения
Вы не можете добавлять вложения

Перейти:  
Для Мосгорсуда, Роскомнадзора и рекламодателей: mosgorsud-torrent[собачка]yandex.ru
 Вход
ppkBB3cker v.2 © 2008-2014 @ PPK
[ Time : 0.039s | 16 Queries | GZIP : Off ]

cron