img image001 image001 image001 image001 image001 image001 image001 image001 image001 image001 image001 image001 image001 image001 image001

Planets Sun Sun Sun
Статистика раздачи
Автор: PriZraK | Размер: 1.5 ГБ | Добавлен: 22 ноя 2016
Раздают: 47    Качают: 0
Скачать торрент
Скачать торрент
Описание торрента

СообщениеДобавлено: 22 ноя 2016 

Информация о фильме
Название: 10 друзей Кролика
Год выхода: 2015
Страна: Россия, АА студия
Жанр: Мультсериал, приключения, детский, семейный
Продолжительность: 20 х ~ 00:05:21
Язык: русский
Режиссеры: Святослав Ушаков, Сергей Братерскии?, Андрей Свислоцкии?, Мария Шумилина, Барри Водос
Роли озвучивали: Никита Прозоровский, Ольга Зверева, Ольга Кузнецова, Анна Штукатурова, Анастасия Лапина, ...
О фильме: Они живут в мире, где нет людей, есть только животные. Приехавшие из разных уголков нашей замечательной планеты они быстро находят общий язык друг с другом и становятся настоящими друзьями. Каждый из них имеет увлечение или хобби. Например, заяц -спортсмен, занимается паркуром, кенгуру-садовник, крокодил и лиса — изобретатели и механики. Каждый их день насыщен приключениями, открытиями, развлечениями и весельем.
01. Обида
02. Изгоняющий пчёл
03. Похитители скворечников
04. Мумия
05. Богатырская доля
06. Спарринг партнер
07. Недогоняемый - звук пропадаетв середине
08. Почта
09. Вторжение
10. Огромная разница
11. Акула
12. Кролик в небе
13. Самый больной зуб
14. Новый будильник
15. Все выше и выше
16. Как согреть крокодила
17. Чувство полета
18. Волшебный орел
19. Сад камней
20. Бумеранг
Созданный совместными усилиями (кто знает, кто знает?) онлайн-кинотеатра ivi и легендарной детской программы «Спокойной ночи, малыши» мультсериал, над которым работали специалисты, приложившие руку к созданию мультфильмов «Ну, погоди!», «Маша и медведь»... Действие мультсериала «10 друзей Кролика» разворачивается в летнем лагере отдыха, где проводят свои каникулы звери. Сам лагерь находится в России, а населяют его жители разных стран и континентов. Несмотря на то, что зверушки прилетели сюда из разных частей света, им не составляет труда найти общий язык и подружиться. Здесь бок о бок, в своих симпатичных домиках, живут кенгуру-садовник, заяц-паркурщик, крокодил-механик и лиса-изобретатель. Каждый здесь занят своим делом, но при этом лагерь – это большая дружная семья. Здесь есть пляж, лодочная станция, оранжерея, мастерская, стадион и даже парк развлечений, поэтому зверятам никогда не бывает скучно. В каждой серии зайчонок Зай, которого тут все зовут Кроликом, и его друзья находят новые приключения. Как звери отдыхают в интернациональном летнем лагере под руководством медведя Михалыча и вожатых козла Коли и барана



Доп. информация:
Семпл


Файл
Формат: AVI
Качество: WEB-DLRip
Видео: 720x400 (1.80:1), 25 fps, XviD build 65 ~1801 kbps avg, 0.25 bit/pixel
Звук: 48 kHz, AC3 Dolby Digital, 2/0 (L,R) ch, ~192.00 kbps avg
20. Бумеранг. W-XviD-merci-.avi
Format : AVI
Format/Info : Audio Video Interleave
File size : 78.3 MiB
Duration : 5mn 27s
Overall bit rate : 2 003 Kbps
Writing application : VirtualDubMod 1.5.10.3 | www.virtualdub-fr.org || (build 2550/release)
Writing library : VirtualDubMod build 2550/release
Video
ID : 0
Format : MPEG-4 Visual
Format profile : Advanced Simple@L5
Format settings, BVOP : 1
Format settings, QPel : No
Format settings, GMC : No warppoints
Format settings, Matrix : Default (MPEG)
Codec ID : XVID
Codec ID/Hint : XviD
Duration : 5mn 27s
Bit rate : 1 801 Kbps
Width : 720 pixels
Height : 400 pixels
Display aspect ratio : 16:9
Frame rate : 25.000 fps
Color space : YUV
Chroma subsampling : 4:2:0
Bit depth : 8 bits
Scan type : Progressive
Compression mode : Lossy
Bits/(Pixel*Frame) : 0.250
Stream size : 70.4 MiB (90%)
Writing library : XviD 65
Audio
ID : 1
Format : AC-3
Format/Info : Audio Coding 3
Mode extension : CM (complete main)
Format settings, Endianness : Big
Codec ID : 2000
Duration : 5mn 27s
Bit rate mode : Constant
Bit rate : 192 Kbps
Channel(s) : 2 channels
Channel positions : Front: L R
Sampling rate : 48.0 KHz
Frame rate : 31.250 fps (1536 spf)
Compression mode : Lossy
Stream size : 7.51 MiB (10%)
Alignment : Split accross interleaves
Interleave, duration : 40 ms (1.00 video frame)
Interleave, preload duratio : 500 ms


Релиз от:
Автор релиза: /



   Похожие торренты   Торрент   Размер 
В этой теме нет новых непрочитанных сообщений. 10 друзей Кролика [01x01-05 из 92] (2015) WEB-DL 2160p (4K) от ExKinoRay

1 | 0

1.91 ГБ

В этой теме нет новых непрочитанных сообщений. 10 друзей Кролика [01x01-20 из 92] (2015) WEB-DL 720p от ExKinoRay

11 | 0

2.12 ГБ

В этой теме нет новых непрочитанных сообщений. 10 друзей Кролика [01x01-09.11-12 из 92] (2015) WEB-DL 2160p от ExKinoRay

1 | 0

5.14 ГБ

В этой теме нет новых непрочитанных сообщений. 10 друзей Кролика [01x01-20 из 92] (2015) WEB-DL 1080p от ExKinoRay

28 | 15

3.16 ГБ

В этой теме нет новых непрочитанных сообщений. 10 друзей Кролика [01х01-37 из 92] (2015-2016) WEB-DLRip 720p | Arthur1604

39 | 8

5.14 ГБ

В этой теме нет новых непрочитанных сообщений. 10 друзей Кролика [01-14] (2016) WEBRip-AVC

100 | 1

317.24 МБ

В этой теме нет новых непрочитанных сообщений. Убрать из друзей / Unfriended (2015) WEB-DLRip-AVC от ExKinoRay | iTunes

2415 | 212

1.46 ГБ




Вы не можете начинать темы
Вы не можете отвечать на сообщения
Вы не можете редактировать свои сообщения
Вы не можете удалять свои сообщения
Вы не можете добавлять вложения

Перейти:  
Для Мосгорсуда, Роскомнадзора и рекламодателей: mosgorsud-torrent[собачка]yandex.ru
 Вход
ppkBB3cker v.2 © 2008-2014 @ PPK
[ Time : 0.047s | 16 Queries | GZIP : Off ]

Торрент трекер RUTOR.IN, Не можете зайти на rutor.org? Какой новый адрес рутор? Какое зеркало рутор? Не работает rutor.org и зеркала? Тогда наш торрент специально для вас. Rutor.in неофициальное зеркало rutor. В случае если у Вас заблокирован rutor или вдруг Вы не можете на него зайти, то Вы без труда сможете скачать бесплатно и без рекламы последние новинки кино, игр, сериалов и прочего у нас, на Rutor.in. Не нужно использовать прокси, чтобы зайти на рутор, достаточно воспользоваться нашим ресурсом. Все новые фильмы, игры, сериалы, книги и музыка за 2013 и 2014 годы через торрент бесплатно. Скачивайте фильмы в хорошем качестве, игры для пк, xbox, playstation без регистрации. У нас вы найдете новые Зарубежные сериалы и Русские сериалы 2013, 2014, 2015 годов. Оставайтесь с нами, качайте любимые фильмы, игры, сериалы, книги и музыку.
cron