img image001 image001 image001 image001 image001 image001 image001 image001 image001 image001 image001 image001 image001 image001 image001

Planets Sun Sun Sun
Статистика раздачи
Автор: PriZraK | Размер: 3.16 ГБ | Добавлен: 22 ноя 2016
Раздают: 34    Качают: 7
Скачать торрент
Скачать торрент
Описание торрента

СообщениеДобавлено: 22 ноя 2016 

Информация о фильме
Название: 10 друзей Кролика
Год выхода: 2015
Страна: Россия, АА студия "Пифагор"
Жанр: Мультсериал, приключения, детский, семейный
Продолжительность: 20 х ~ 00:05:21
Язык: русский
Режиссеры: Святослав Ушаков, Сергей Братерскии?, Андрей Свислоцкии?, Мария Шумилина, Барри Водос
Роли озвучивали: Никита Прозоровский, Ольга Зверева, Ольга Кузнецова, Анна Штукатурова, Анастасия Лапина, ...
О фильме: Они живут в мире, где нет людей, есть только животные. Приехавшие из разных уголков нашей замечательной планеты они быстро находят общий язык друг с другом и становятся настоящими друзьями. Каждый из них имеет увлечение или хобби. Например, заяц -спортсмен, занимается паркуром, кенгуру-садовник, крокодил и лиса — изобретатели и механики. Каждый их день насыщен приключениями, открытиями, развлечениями и весельем.
01. Обида
02. Изгоняющий пчёл
03. Похитители скворечников
04. Мумия
05. Богатырская доля
06. Спарринг партнер
07. Недогоняемый - звук пропадаетв середине
08. Почта
09. Вторжение
10. Огромная разница
11. Акула
12. Кролик в небе
13. Самый больной зуб
14. Новый будильник
15. Все выше и выше
16. Как согреть крокодила
17. Чувство полета
18. Волшебный орел
19. Сад камней
20. Бумеранг
Созданный совместными усилиями (кто знает, кто знает?) онлайн-кинотеатра ivi и легендарной детской программы «Спокойной ночи, малыши» мультсериал, над которым работали специалисты, приложившие руку к созданию мультфильмов «Ну, погоди!», «Маша и медведь»... Действие мультсериала «10 друзей Кролика» разворачивается в летнем лагере отдыха, где проводят свои каникулы звери. Сам лагерь находится в России, а населяют его жители разных стран и континентов. Несмотря на то, что зверушки прилетели сюда из разных частей света, им не составляет труда найти общий язык и подружиться. Здесь бок о бок, в своих симпатичных домиках, живут кенгуру-садовник, заяц-паркурщик, крокодил-механик и лиса-изобретатель. Каждый здесь занят своим делом, но при этом лагерь – это большая дружная семья. Здесь есть пляж, лодочная станция, оранжерея, мастерская, стадион и даже парк развлечений, поэтому зверятам никогда не бывает скучно. В каждой серии зайчонок Зай, которого тут все зовут Кроликом, и его друзья находят новые приключения. Как звери отдыхают в интернациональном летнем лагере под руководством медведя Михалыча и вожатых козла Коли и барана



Доп. информация:
Семпл


Файл
Формат: MKV
Качество: WEB-DL 1080p
Видео: MPEG4-AVC, High@L4, 1920x1080 (16:9), ~ 3 853 Kbps, 25.000 fps
Звук: 48.0 KHz, AC3 2.0, 192 Kbps
Субтитры: нет
17. Чувство полета. WEB-DL.1080p.-merci-.mkv
Format : Matroska
Format version : Version 2
File size : 157 MiB
Duration : 5mn 19s
Overall bit rate : 4 128 Kbps
Movie name : 10 друзей Кролика / Россия, АА студия "Пифагор" / -merci-
Encoded date : UTC 2016-11-21 09:20:43
Writing application : mkvmerge v5.8.0 ('No Sleep / Pillow') built on Sep 2 2012 15:37:04
Writing library : libebml v1.2.3 + libmatroska v1.3.0
Video
ID : 1
Format : AVC
Format/Info : Advanced Video Codec
Format profile : High@L4
Format settings, CABAC : Yes
Format settings, ReFrames : 2 frames
Codec ID : V_MPEG4/ISO/AVC
Duration : 5mn 19s
Bit rate : 3 853 Kbps
Width : 1 920 pixels
Height : 1 080 pixels
Display aspect ratio : 16:9
Frame rate mode : Constant
Frame rate : 25.000 fps
Color space : YUV
Chroma subsampling : 4:2:0
Bit depth : 8 bits
Scan type : Progressive
Bits/(Pixel*Frame) : 0.074
Stream size : 147 MiB (93%)
Title : 17. Чувство полета. WEB-DL.1080p.x264.-merci-
Language : Russian
Default : Yes
Forced : No
Color range : Limited
Color primaries : BT.709
Transfer characteristics : BT.709
Matrix coefficients : BT.709
Audio
ID : 2
Format : AC-3
Format/Info : Audio Coding 3
Mode extension : CM (complete main)
Format settings, Endianness : Big
Codec ID : A_AC3
Duration : 5mn 19s
Bit rate mode : Constant
Bit rate : 192 Kbps
Channel(s) : 2 channels
Channel positions : Front: L R
Sampling rate : 48.0 KHz
Frame rate : 31.250 fps (1536 spf)
Compression mode : Lossy
Stream size : 7.30 MiB (5%)
Title : rus
Language : Russian
Default : Yes
Forced : No


Релиз от:
Автор релиза: /



   Похожие торренты   Торрент   Размер 
В этой теме нет новых непрочитанных сообщений. 10 друзей Кролика [01x01-05 из 92] (2015) WEB-DL 2160p (4K) от ExKinoRay

6 | 0

1.91 ГБ

В этой теме нет новых непрочитанных сообщений. 10 друзей Кролика [01x01-20 из 92] (2015) WEB-DL 720p от ExKinoRay

5 | 0

2.12 ГБ

В этой теме нет новых непрочитанных сообщений. 10 друзей Кролика [01x01-20 из 92] (2015) WEB-DLRip от ExKinoRay

52 | 3

1.5 ГБ

В этой теме нет новых непрочитанных сообщений. 10 друзей Кролика [01-14] (2016) WEBRip-AVC

100 | 1

317.24 МБ

В этой теме нет новых непрочитанных сообщений. Убей своих друзей / Kill Your Friends (2015) BDRemux 1080p от ExKinoRay | iTunes

25 | 2

26.27 ГБ

В этой теме нет новых непрочитанных сообщений. Друзья друзей (2013) BDRemux 1080p от ExKinoRay

17 | 8

20.67 ГБ

В этой теме нет новых непрочитанных сообщений. Убрать из друзей / Unfriended (2015) WEB-DLRip-AVC от ExKinoRay | iTunes

2415 | 212

1.46 ГБ




Вы не можете начинать темы
Вы не можете отвечать на сообщения
Вы не можете редактировать свои сообщения
Вы не можете удалять свои сообщения
Вы не можете добавлять вложения

Перейти:  
Для Мосгорсуда, Роскомнадзора и рекламодателей: mosgorsud-torrent[собачка]yandex.ru
 Вход
ppkBB3cker v.2 © 2008-2014 @ PPK
[ Time : 0.023s | 14 Queries | GZIP : Off ]
CGP output time : 0.064s | 7 Queries | GZIP : Off

Торрент трекер RUTOR.IN, Не можете зайти на rutor.org? Какой новый адрес рутор? Какое зеркало рутор? Не работает rutor.org и зеркала? Тогда наш торрент специально для вас. Rutor.in неофициальное зеркало rutor. В случае если у Вас заблокирован rutor или вдруг Вы не можете на него зайти, то Вы без труда сможете скачать бесплатно и без рекламы последние новинки кино, игр, сериалов и прочего у нас, на Rutor.in. Не нужно использовать прокси, чтобы зайти на рутор, достаточно воспользоваться нашим ресурсом. Все новые фильмы, игры, сериалы, книги и музыка за 2013 и 2014 годы через торрент бесплатно. Скачивайте фильмы в хорошем качестве, игры для пк, xbox, playstation без регистрации. У нас вы найдете новые Зарубежные сериалы и Русские сериалы 2013, 2014, 2015 годов. Оставайтесь с нами, качайте любимые фильмы, игры, сериалы, книги и музыку.