img image001 image001 image001 image001 image001 image001 image001 image001 image001 image001 image001 image001 image001 image001 image001

Planets Sun Sun Sun
Статистика раздачи
Автор: PriZraK | Размер: 3.17 ГБ | Добавлен: 25 ноя 2016, 17:24
Раздают: 3    Качают: 0
Скачать торрент
Скачать торрент
Описание торрента

СообщениеДобавлено: 25 ноя 2016, 17:24 

Информация о фильме
Название: Трактаун
Оригинальное название: Treehouse
Год выхода: 2014
Страна: Канада, Nelvana A CORUS
Жанр: Мультсериал, приключения, детский, комедия
Продолжительность: 18 х ~ 00:11:60
Перевод: Профессиональный дублированный
Режиссер: Виолета Николас / Violeta Nikolic
Роли озвучивали:
Джек / Jack - Амос Кревл / Amos Crawley
Дэн / Dan - Джо Пинг / Joe Pingue
Макс / Max - Роб Тинклер / Rob Tinkler
Феликс / Felix - Джей Т.Чрамек / Jay T. Schramek
Тэд / Ted - Тилер Мурр / Tyler Murree
Пите, Биг Риг / Pete, Big Rig - Дэн Петронивик / Dan Petronijevic
Гэби / Gabby - Стеси Депасс / Stacey Depass
Роси / Rosie - Стефани Милс / Stephanie Mills
Крэнер / Craner - Адриан Трасс / Adrian Truss
Мелвин / Melvin - Склот Макорд / Scott Mccord
О фильме: Добро пожаловать в Трактаун - безумно веселый шумный город, в котором никогда не бывает скучно! Здесь живут друзья-машинки: грузовик Джек, самосвал Дэн, монстр-трак Макс, пожарная машина Феликс и многие другие. Вместе они каждый день играют, справляются с трудностями, заводят новых друзей и, конечно, гоняют по трассам Трактауна!
01. Трудная трасса
02. Дави, круши!
03. Грузовичок-Бенд
04. Сокровища грузовичков
05. Чистый Макс
06. Прячься и круши
07. Зелёный свет
08. Строим мост
09. Задом наперёд
10. Мегавиражные горки!
11. Парад Крейнера
12. Не спать!
13. Кто больше
14. Патрульные советы
15. Всё и сразу
16. Как приручить газонокосилку
17. Грузовик-призрак
18. Родео в Трактауне!



Доп. информация:
Семпл


Файл
Формат: MP4
Качество: WEB-DLRip 1080p
Видео: MPEG4-AVC, High@L4, 1920x1080 (16:9), ~ 1 965 Kbps, 25.000 fps
Звук: 44.1 KHz, AAC-LC 2.0, 126 Kbps
Субтитры: нет
09. Задом наперёд. Full-HD-merci-.mp4
Формат : MPEG-4
Профиль формата : Base Media
Идентификатор кодека : isom (isom/mp42)
Размер файла : 177 Мбайт
Продолжительность : 11 м.
Режим общего битрейта : Переменный
Общий поток : 2096 Кбит/сек
Дата кодирования : UTC 2016-11-03 08:04:44
Дата пометки : UTC 2016-11-03 08:04:44
Видео
Идентификатор : 1
Формат : AVC
Формат/Информация : Advanced Video Codec
Профиль формата : High@L4
Параметр CABAC формата : Да
Параметр ReFrames формата : 3 кадра
Идентификатор кодека : avc1
Идентификатор кодека/Информация : Advanced Video Coding
Продолжительность : 11 м.
Продолжительность оригинала : 11 м.
Битрейт : 1965 Кбит/сек
Ширина : 1920 пикселей
Высота : 1080 пикселей
Соотношение сторон : 16:9
Режим частоты кадров : Постоянный
Частота кадров : 25,000 кадров/сек
Цветовое пространство : YUV
Субдискретизация насыщенности : 4:2:0
Битовая глубина : 8 бит
Тип развёртки : Прогрессивная
Бит/(Пиксели*Кадры) : 0.038
Размер потока : 166 Мбайт (94%)
Размер потока оригинала : 166 Мбайт (94%)
Язык : English
Дата кодирования : UTC 2016-11-03 08:04:44
Дата пометки : UTC 2016-11-03 08:04:44
Цветовой диапазон : Limited
Основные цвета : BT.709
Характеристики трансфера : BT.709
Коэффициенты матрицы : BT.709
mdhd_Duration : 709440
Аудио
Идентификатор : 2
Формат : AAC
Формат/Информация : Advanced Audio Codec
Профиль формата : LC
Идентификатор кодека : 40
Продолжительность : 11 м.
Duration_FirstFrame : -5 мс.
Вид битрейта : Переменный
Битрейт : 126 Кбит/сек
Каналы : 2 канала
Расположение каналов : Front: L R
Частота : 44,1 КГц
Частота кадров : 43,066 кадра/сек (1024 spf)
Метод сжатия : С потерями
Размер потока : 10,6 Мбайт (6%)
Язык : English
Дата кодирования : UTC 2016-11-03 08:04:44
Дата пометки : UTC 2016-11-03 08:04:44
mdhd_Duration : 709481


Релиз от:
Автор релиза: /



   Похожие торренты   Торрент   Размер 
В этой теме нет новых непрочитанных сообщений. Трактаун / Treehouse [1-18] (2014) WEB-DLRip 1080p от ExKinoRey | D

4 | 5

3.55 ГБ

В этой теме нет новых непрочитанных сообщений. Трактаун / Treehouse [1-18] (2014) WEB-DLRip от ExKinoRey | D

12 | 6

2.98 ГБ

В этой теме нет новых непрочитанных сообщений. Трактаун / Treehouse [1-18] (2014) WEB-DLRip от ExKinoRey | D

12 | 0

2.69 ГБ

В этой теме нет новых непрочитанных сообщений. Трактаун / Treehouse [1-18] (2014) WEB-DLRip 720p от ExKinoRey | D

12 | 2

1.9 ГБ

В этой теме нет новых непрочитанных сообщений. Трактаун / Treehouse [1-18] (2014) WEB-DLRip 720p от ExKinoRey | D

4 | 7

2.12 ГБ

В этой теме нет новых непрочитанных сообщений. Домик на дереве / Treehouse (2014) WEB-DLRip | L2

649 | 24

1.46 ГБ

В этой теме нет новых непрочитанных сообщений. Домик на дереве / Treehouse (2014) WEB-DL 720p | L2

782 | 37

3.12 ГБ




Вы не можете начинать темы
Вы не можете отвечать на сообщения
Вы не можете редактировать свои сообщения
Вы не можете удалять свои сообщения
Вы не можете добавлять вложения

Перейти:  
Для Мосгорсуда, Роскомнадзора и рекламодателей: mosgorsud-torrent[собачка]yandex.ru
Настройки
ppkBB3cker v.2 © 2008-2014 @ PPK
[ Time : 0.014s | 16 Queries | GZIP : Off ]
CGP [Extreme] output time : 0.00074s | 0 Queries | GZIP : Off

Торрент трекер RUTOR.IN, Не можете зайти на rutor.org? Какой новый адрес рутор? Какое зеркало рутор? Не работает rutor.org и зеркала? Тогда наш торрент специально для вас. Rutor.in неофициальное зеркало rutor. В случае если у Вас заблокирован rutor или вдруг Вы не можете на него зайти, то Вы без труда сможете скачать бесплатно и без рекламы последние новинки кино, игр, сериалов и прочего у нас, на Rutor.in. Не нужно использовать прокси, чтобы зайти на рутор, достаточно воспользоваться нашим ресурсом. Все новые фильмы, игры, сериалы, книги и музыка за 2013 и 2014 годы через торрент бесплатно. Скачивайте фильмы в хорошем качестве, игры для пк, xbox, playstation без регистрации. У нас вы найдете новые Зарубежные сериалы и Русские сериалы 2013, 2014, 2015 годов. Оставайтесь с нами, качайте любимые фильмы, игры, сериалы, книги и музыку.