img image001 image001 image001 image001 image001 image001 image001 image001 image001 image001 image001 image001 image001 image001 image001

Planets Sun Sun Sun
Статистика раздачи
Автор: PriZraK | Размер: 13.3 ГБ | Добавлен: 26 ноя 2016
Раздают: 11    Качают: 11
Скачать торрент
Скачать торрент
Описание торрента

СообщениеДобавлено: 26 ноя 2016 

Информация о фильме
Название: Приключения Танчика
Оригинальное название: Tank Story
Год выхода: 2012
Страна: Китай, ECCG Europe-China Animation
Жанр: Мультсериал, мультфильм, детский
Продолжительность: 104 х ~ 00:12:04
Перевод: Профессиональный дублированный
Режиссеры: Сян Фан, Хань Чжи
Роли озвучивали:
Роли дублировали: Сергей Дьячков, Татьяна Кулакова
О фильме: Действие мультсериала происходит в нашей реальности, в обычном доме, где живет мальчик, которого игрушки называют Маленьким Хозяином. У мальчика есть целый полк танков, и главным среди них считается гордый и грозный Канонир, у которого даже есть собственный трон. Но однажды на этом троне появляется новичок — маленький Танчик, который заявляет, что обладает магическими силами. Канониру не по душе такая самоуверенность, и он бросает незваному гостю вызов, который тот, к удивлению окружающих, смело принимает.
01. У танков новая звезда
02. Волшебный кондиционер
03. Неразумный план хитреца
04. Машина для клонирования
05. Машина времени
06. Землетрясение пришло
07. Яйцо динозавра
08. Красивые планы
09. Волшебное мороженое
10. День рождения Антенки
11. Комариная армия
12. Скользкая история
13. С днем дурака
14. Кролик благополучия
15. Каково учиться у волшебника
16. Тореадор
17. Битва за вертолёт
18. День прекращения огня
19. Магическая роза
20. Квакин - это лягушка
21. Росток появился вдруг
22. Магический кристалл
23. Магический фотоаппарат
24. Хроника приключений на грибном острове
25. Все неприятности из-за ботика
26. Красивые планы
27. Магнитофонный инцидент
28. Хохо атакует
29. Танки играют в жмурки
30. Лучший сыщик во всем мире
31. Канонир сказал- --МЯУ-
32. Мощность ледяного снаряда
33. Внешняя антенна
34. Ковбой очень занят
35. Бесстрашный ниндзя
36. Ловушка для кролика
37. Нет дыма без огня
38. Драгоценная помидорка
39. Соня сердится
40. Спасти Канонира
41. Игра в прятки
42. Мир без Сони
43. Появление инопланетного персика, будте осторожны!
44. Во всем виновато зеркало
45. Миссия Хохо
46. Битва в тумане
47. Первомайская битва
48. Большой пришелец, маленький пришелец
49. Загадка древней игры
50. Длинноносый танчик
51. Битва танчика с инопланетянами
52. Приключения Весельчака
53. Слуга дает отпор
54. Канонир заболел
55. Собачка-ищейка
56. Мир магии
57. Созвездие танчиков
58. Фруктовая деревня
59. Помидорное дерево
60. Экскурсия
61. Сочельник
62. Звездные войны
63. Спасая магическую планету
64. Эксперимент
65. Муравьи в беде
66. В гостях у маленького динозавра
67. Хитрец любит помогать
68. Замечательный план Хитреца
69. Кто на свете всех милей
70. Кот, Канонир и мышка танчик
71. Рождественский подарок
72. Подарок
73. Оружие-сюрприз
74. Перед карнавалом
75. Карнавал
76. Луч безумия
77. Появление Балбеса
78. НЛО
79. Гриб
80. Скорая помощь
81. Карета из тыквы
82. Большие гонки
83. Чудище наносит удар
84. Волшебная раковина
85. Граммофон
86. Желанное оружие
87. Измерить силы
88. Кто победит на скачках
89. В поисках НЛО
90. Вторжение корабля грибов
91. Мусорная битва
92. Нефтяные войны
93. Чемпионат
94. Волшебная кастрюля
95. Подарок Канонира
96. Волшебная палочка
97. Приключение на острове духов
98. Входные билеты
99. Олимпиада
100. Поймать Вонючку
101. Генератор идей
102. Планирование полета
103. Устройство для перевоплощений
104. Робокомар



Доп. информация:
Семпл


Файл
Формат: MP4
Качество: WEB-DLRip 720p
Видео: MPEG4-AVC, Main@L3.1, 1280x720 (16:9), ~ 1 651 Kbps, 25.000 fps
Звук: 44.1 KHz, AAC-LC 2.0, 126 Kbps
Субтитры: нет
88. Кто победит на скачках. HD-merci-.mp4
Формат : MPEG-4
Профиль формата : Base Media
Идентификатор кодека : isom (isom/iso2/avc1/mp41)
Размер файла : 153 Мбайт
Продолжительность : 12 м.
Режим общего битрейта : Переменный
Общий поток : 1778 Кбит/сек
Дата кодирования : UTC 2016-11-15 17:15:38
Дата пометки : UTC 2016-11-15 17:15:38
Видео
Идентификатор : 1
Формат : AVC
Формат/Информация : Advanced Video Codec
Профиль формата : Main@L3.1
Параметр CABAC формата : Да
Параметр ReFrames формата : 1 кадр
Идентификатор кодека : avc1
Идентификатор кодека/Информация : Advanced Video Coding
Продолжительность : 12 м.
Битрейт : 1651 Кбит/сек
Ширина : 1280 пикселей
Высота : 720 пикселей
Соотношение сторон : 16:9
Режим частоты кадров : Постоянный
Частота кадров : 25,000 кадров/сек
Цветовое пространство : YUV
Субдискретизация насыщенности : 4:2:0
Битовая глубина : 8 бит
Тип развёртки : Прогрессивная
Бит/(Пиксели*Кадры) : 0.072
Размер потока : 142 Мбайт (93%)
Заголовок : ISO Media file produced by Google Inc.
Дата кодирования : UTC 2016-11-15 17:15:38
Дата пометки : UTC 2016-11-15 17:15:38
Цветовой диапазон : Limited
Основные цвета : BT.709
Характеристики трансфера : BT.709
Коэффициенты матрицы : BT.709
Аудио
Идентификатор : 2
Формат : AAC
Формат/Информация : Advanced Audio Codec
Профиль формата : LC
Идентификатор кодека : 40
Продолжительность : 12 м.
Вид битрейта : Переменный
Битрейт : 126 Кбит/сек
Каналы : 2 канала
Расположение каналов : Front: L R
Частота : 44,1 КГц
Частота кадров : 43,066 кадра/сек (1024 spf)
Метод сжатия : С потерями
Размер потока : 10,8 Мбайт (7%)
Default : Да
Alternate group : 1
Дата кодирования : UTC 2016-02-19 02:54:39
Дата пометки : UTC 2016-02-19 02:54:39


Релиз от:
Автор релиза: /



   Похожие торренты   Торрент   Размер 
В этой теме нет новых непрочитанных сообщений. Приключения Танчика / Tank Story [s01] (2012) WEB-DLRip от ExKinoRay | D

3 | 6

15.83 ГБ

В этой теме нет новых непрочитанных сообщений. Приключения Танчика / Tank Story [s01] (2012) WEB-DLRip 1080p от ExKinoRay | D

0 | 6

27.33 ГБ

В этой теме нет новых непрочитанных сообщений. Манхэттенская история любви / Manhattan Love Story [01x01-02] (2014) WEB-DLRip-AVC от ExKinoray

57 | 33

762.74 МБ

В этой теме нет новых непрочитанных сообщений. Манхэттенская история любви / Manhattan Love Story [01x01] (2014) WEB-DLRip-AVC от Exkinoray

27 | 5

381.4 МБ

В этой теме нет новых непрочитанных сообщений. Манхэттенская история любви / Manhattan Love Story [01x01-03] (2014) WEB-DLRip (AVC) от ExKinoray

15 | 10

1.12 ГБ

В этой теме нет новых непрочитанных сообщений. Манхэттенская история любви / Manhattan Love Story [01x01-04] (2014) WEB-DLRip-AVC от ExKinoray

10 | 6

1.49 ГБ

В этой теме нет новых непрочитанных сообщений. Белка и Стрелка: Лунные приключения (2013) WEB-DLRip-AVC от ExKinoRay

179 | 106

1.3 ГБ




Вы не можете начинать темы
Вы не можете отвечать на сообщения
Вы не можете редактировать свои сообщения
Вы не можете удалять свои сообщения
Вы не можете добавлять вложения

Перейти:  
Для Мосгорсуда, Роскомнадзора и рекламодателей: mosgorsud-torrent[собачка]yandex.ru
 Вход
ppkBB3cker v.2 © 2008-2014 @ PPK
[ Time : 0.077s | 15 Queries | GZIP : Off ]

Торрент трекер RUTOR.IN, Не можете зайти на rutor.org? Какой новый адрес рутор? Какое зеркало рутор? Не работает rutor.org и зеркала? Тогда наш торрент специально для вас. Rutor.in неофициальное зеркало rutor. В случае если у Вас заблокирован rutor или вдруг Вы не можете на него зайти, то Вы без труда сможете скачать бесплатно и без рекламы последние новинки кино, игр, сериалов и прочего у нас, на Rutor.in. Не нужно использовать прокси, чтобы зайти на рутор, достаточно воспользоваться нашим ресурсом. Все новые фильмы, игры, сериалы, книги и музыка за 2013 и 2014 годы через торрент бесплатно. Скачивайте фильмы в хорошем качестве, игры для пк, xbox, playstation без регистрации. У нас вы найдете новые Зарубежные сериалы и Русские сериалы 2013, 2014, 2015 годов. Оставайтесь с нами, качайте любимые фильмы, игры, сериалы, книги и музыку.