img image001 image001 image001 image001 image001 image001 image001 image001 image001 image001 image001 image001 image001 image001 image001

Planets Sun Sun Sun
Статистика раздачи
Автор: PriZraK | Размер: 2.98 ГБ | Добавлен: 30 ноя 2016
Раздают: 12    Качают: 6
Скачать торрент
Скачать торрент
Описание торрента

СообщениеДобавлено: 30 ноя 2016 

Информация о фильме
Название: Трактаун
Оригинальное название: Treehouse
Год выхода: 2014
Страна: Канада, Nelvana A CORUS
Жанр: Мультсериал, приключения, детский, комедия
Продолжительность: 18 х ~ 00:11:60
Перевод: Профессиональный дублированный
Режиссер: Виолета Николас / Violeta Nikolic
Роли озвучивали:
Джек / Jack - Амос Кревл / Amos Crawley
Дэн / Dan - Джо Пинг / Joe Pingue
Макс / Max - Роб Тинклер / Rob Tinkler
Феликс / Felix - Джей Т.Чрамек / Jay T. Schramek
Тэд / Ted - Тилер Мурр / Tyler Murree
Пите, Биг Риг / Pete, Big Rig - Дэн Петронивик / Dan Petronijevic
Гэби / Gabby - Стеси Депасс / Stacey Depass
Роси / Rosie - Стефани Милс / Stephanie Mills
Крэнер / Craner - Адриан Трасс / Adrian Truss
Мелвин / Melvin - Склот Макорд / Scott Mccord
О фильме: Знакомься! Это красный грузовичок Джек и его друзья! Все они живут в городке под названием Трактаун, и каждый день они весело играют вместе и заводят новых друзей. В первой серии лучший друг Джека Дэн не может ездить нормально, потому что у него новые слишком гладкие и скользкие шины. Тогда друзья решают сделать крутую трассу с препятствиями, чтобы Дэн смог обкатать свои новые шины. Но путь им преграждает верзила Биг Риг...
01. Трудная трасса
02. Дави, круши!
03. Грузовичок-Бенд
04. Сокровища грузовичков
05. Чистый Макс
06. Прячься и круши
07. Зелёный свет
08. Строим мост
09. Задом наперёд
10. Мегавиражные горки!
11. Парад Крейнера
12. Не спать!
13. Кто больше
14. Патрульные советы
15. Всё и сразу
16. Как приручить газонокосилку
17. Грузовик-призрак
18. Родео в Трактауне!



Доп. информация:
Семпл


Файл
Формат: AVI
Качество: WEB-DLRip
Видео: 720x400 (1.80:1), 25 fps, XviD build 65 ~1603 kbps avg, 0.22 bit/pixel
Звук: 48 kHz, AC3 Dolby Digital, 2/0 (L,R) ch, ~192.00 kbps avg
Субтитры: нет
16. Как приручить газонокосилку. XviD-merci-.avi
Формат : AVI
Формат/Информация : Audio Video Interleave
Размер файла : 153 Мбайт
Продолжительность : 11 м.
Общий поток : 1806 Кбит/сек
Программа кодирования : VirtualDubMod 1.5.10.3 | www.virtualdub-fr.org || (build 2550/release)
Библиотека кодирования : VirtualDubMod build 2550/release
Видео
Идентификатор : 0
Формат : MPEG-4 Visual
Профиль формата : Advanced Simple@L5
Параметр BVOP формата : 1
Параметр QPel формата : Нет
Параметр GMC формата : Без точки перехода
Параметр матрицы формата : Default (MPEG)
Идентификатор кодека : XVID
Идентификатор кодека/Подсказка : XviD
Продолжительность : 11 м.
Битрейт : 1604 Кбит/сек
Ширина : 720 пикселей
Высота : 400 пикселей
Соотношение сторон : 16:9
Частота кадров : 25,000 кадров/сек
Цветовое пространство : YUV
Субдискретизация насыщенности : 4:2:0
Битовая глубина : 8 бит
Тип развёртки : Прогрессивная
Метод сжатия : С потерями
Бит/(Пиксели*Кадры) : 0.223
Размер потока : 136 Мбайт (89%)
Библиотека кодирования : XviD 65
Аудио
Идентификатор : 1
Формат : AC-3
Формат/Информация : Audio Coding 3
Расширение режима : CM (complete main)
Параметр Endianness формата : Big
Идентификатор кодека : 2000
Продолжительность : 11 м.
Вид битрейта : Постоянный
Битрейт : 192 Кбит/сек
Каналы : 2 канала
Расположение каналов : Front: L R
Частота : 48,0 КГц
Частота кадров : 31,250 кадров/сек (1536 spf)
Метод сжатия : С потерями
Размер потока : 16,2 Мбайт (11%)
Выравнивание : Разделение по промежуткам
Продолжительность промежутка : 40 мс. (1,00 видеокадр)
Время предзагрузки промежутка : 500 мс.


Релиз от:
Автор релиза: /



   Похожие торренты   Торрент   Размер 
В этой теме нет новых непрочитанных сообщений. Трактаун / Treehouse [1-18] (2014) WEB-DLRip от ExKinoRey | D

5 | 1

3.28 ГБ

В этой теме нет новых непрочитанных сообщений. Трактаун / Treehouse [1-18] (2014) WEB-DLRip от ExKinoRey | D

12 | 0

2.69 ГБ

В этой теме нет новых непрочитанных сообщений. Трактаун / Treehouse [1-18] (2014) WEB-DLRip 720p от ExKinoRey | D

4 | 1

2.35 ГБ

В этой теме нет новых непрочитанных сообщений. Трактаун / Treehouse [1-18] (2014) WEB-DLRip 1080p от ExKinoRey | D

1 | 2

3.95 ГБ

В этой теме нет новых непрочитанных сообщений. Трактаун / Treehouse [1-18] (2014) WEB-DLRip 720p от ExKinoRey | D

9 | 8

2.12 ГБ

В этой теме нет новых непрочитанных сообщений. Трактаун / Treehouse [1-18] (2014) WEB-DLRip 1080p от ExKinoRey | D

7 | 8

3.55 ГБ

В этой теме нет новых непрочитанных сообщений. Трактаун / Treehouse [1-18] (2014) WEB-DLRip 1080p от ExKinoRey | D

3 | 0

3.17 ГБ




Вы не можете начинать темы
Вы не можете отвечать на сообщения
Вы не можете редактировать свои сообщения
Вы не можете удалять свои сообщения
Вы не можете добавлять вложения

Перейти:  
Для Мосгорсуда, Роскомнадзора и рекламодателей: mosgorsud-torrent[собачка]yandex.ru
 Вход
ppkBB3cker v.2 © 2008-2014 @ PPK
[ Time : 0.521s | 16 Queries | GZIP : Off ]

Торрент трекер RUTOR.IN, Не можете зайти на rutor.org? Какой новый адрес рутор? Какое зеркало рутор? Не работает rutor.org и зеркала? Тогда наш торрент специально для вас. Rutor.in неофициальное зеркало rutor. В случае если у Вас заблокирован rutor или вдруг Вы не можете на него зайти, то Вы без труда сможете скачать бесплатно и без рекламы последние новинки кино, игр, сериалов и прочего у нас, на Rutor.in. Не нужно использовать прокси, чтобы зайти на рутор, достаточно воспользоваться нашим ресурсом. Все новые фильмы, игры, сериалы, книги и музыка за 2013 и 2014 годы через торрент бесплатно. Скачивайте фильмы в хорошем качестве, игры для пк, xbox, playstation без регистрации. У нас вы найдете новые Зарубежные сериалы и Русские сериалы 2013, 2014, 2015 годов. Оставайтесь с нами, качайте любимые фильмы, игры, сериалы, книги и музыку.
cron