img image001 image001 image001 image001 image001 image001 image001 image001 image001 image001 image001 image001 image001 image001 image001

Planets Sun Sun Sun
Статистика раздачи
Автор: PriZraK | Размер: 15.83 ГБ | Добавлен: 29 ноя 2016
Раздают: 0    Качают: 7
Скачать торрент
Скачать торрент
Описание торрента

СообщениеДобавлено: 29 ноя 2016 

Информация о фильме
Название: Приключения Танчика
Оригинальное название: Tank Story
Год выхода: 2012
Страна: Китай, ECCG Europe-China Animation
Жанр: Мультсериал, мультфильм, детский
Продолжительность: 104 х ~ 00:12:04
Перевод: Профессиональный дублированный
Режиссеры: Сян Фан, Хань Чжи
Роли озвучивали:
Роли дублировали: Сергей Дьячков, Татьяна Кулакова
О фильме: Действие мультсериала происходит в нашей реальности, в обычном доме, где живет мальчик, которого игрушки называют Маленьким Хозяином. У мальчика есть целый полк танков, и главным среди них считается гордый и грозный Канонир, у которого даже есть собственный трон. Но однажды на этом троне появляется новичок — маленький Танчик, который заявляет, что обладает магическими силами. Канониру не по душе такая самоуверенность, и он бросает незваному гостю вызов, который тот, к удивлению окружающих, смело принимает.
01. У танков новая звезда
02. Волшебный кондиционер
03. Неразумный план хитреца
04. Машина для клонирования
05. Машина времени
06. Землетрясение пришло
07. Яйцо динозавра
08. Красивые планы
09. Волшебное мороженое
10. День рождения Антенки
11. Комариная армия
12. Скользкая история
13. С днем дурака
14. Кролик благополучия
15. Каково учиться у волшебника
16. Тореадор
17. Битва за вертолёт
18. День прекращения огня
19. Магическая роза
20. Квакин - это лягушка
21. Росток появился вдруг
22. Магический кристалл
23. Магический фотоаппарат
24. Хроника приключений на грибном острове
25. Все неприятности из-за ботика
26. Красивые планы
27. Магнитофонный инцидент
28. Хохо атакует
29. Танки играют в жмурки
30. Лучший сыщик во всем мире
31. Канонир сказал- --МЯУ-
32. Мощность ледяного снаряда
33. Внешняя антенна
34. Ковбой очень занят
35. Бесстрашный ниндзя
36. Ловушка для кролика
37. Нет дыма без огня
38. Драгоценная помидорка
39. Соня сердится
40. Спасти Канонира
41. Игра в прятки
42. Мир без Сони
43. Появление инопланетного персика, будте осторожны!
44. Во всем виновато зеркало
45. Миссия Хохо
46. Битва в тумане
47. Первомайская битва
48. Большой пришелец, маленький пришелец
49. Загадка древней игры
50. Длинноносый танчик
51. Битва танчика с инопланетянами
52. Приключения Весельчака
53. Слуга дает отпор
54. Канонир заболел
55. Собачка-ищейка
56. Мир магии
57. Созвездие танчиков
58. Фруктовая деревня
59. Помидорное дерево
60. Экскурсия
61. Сочельник
62. Звездные войны
63. Спасая магическую планету
64. Эксперимент
65. Муравьи в беде
66. В гостях у маленького динозавра
67. Хитрец любит помогать
68. Замечательный план Хитреца
69. Кто на свете всех милей
70. Кот, Канонир и мышка танчик
71. Рождественский подарок
72. Подарок
73. Оружие-сюрприз
74. Перед карнавалом
75. Карнавал
76. Луч безумия
77. Появление Балбеса
78. НЛО
79. Гриб
80. Скорая помощь
81. Карета из тыквы
82. Большие гонки
83. Чудище наносит удар
84. Волшебная раковина
85. Граммофон
86. Желанное оружие
87. Измерить силы
88. Кто победит на скачках
89. В поисках НЛО
90. Вторжение корабля грибов
91. Мусорная битва
92. Нефтяные войны
93. Чемпионат
94. Волшебная кастрюля
95. Подарок Канонира
96. Волшебная палочка
97. Приключение на острове духов
98. Входные билеты
99. Олимпиада
100. Поймать Вонючку
101. Генератор идей
102. Планирование полета
103. Устройство для перевоплощений
104. Робокомар



Доп. информация:
Семпл


Файл
Формат: AVI
Качество: WEB-DLRip
Видео: 720x400 (1.80:1), 25 fps, XviD build 65 ~1602 kbps avg, 0.22 bit/pixel
Звук: 48 kHz, AC3 Dolby Digital, 2/0 (L,R) ch, ~192.00 kbps avg
Субтитры: нет
83. Чудище наносит удар. XviD-merci-.avi
Формат : AVI
Формат/Информация : Audio Video Interleave
Размер файла : 156 Мбайт
Продолжительность : 12 м.
Общий поток : 1805 Кбит/сек
Программа кодирования : VirtualDubMod 1.5.10.3 | www.virtualdub-fr.org || (build 2550/release)
Библиотека кодирования : VirtualDubMod build 2550/release
Видео
Идентификатор : 0
Формат : MPEG-4 Visual
Профиль формата : Advanced Simple@L5
Параметр BVOP формата : 1
Параметр QPel формата : Нет
Параметр GMC формата : Без точки перехода
Параметр матрицы формата : Default (MPEG)
Идентификатор кодека : XVID
Идентификатор кодека/Подсказка : XviD
Продолжительность : 12 м.
Битрейт : 1603 Кбит/сек
Ширина : 720 пикселей
Высота : 400 пикселей
Соотношение сторон : 16:9
Частота кадров : 25,000 кадров/сек
Цветовое пространство : YUV
Субдискретизация насыщенности : 4:2:0
Битовая глубина : 8 бит
Тип развёртки : Прогрессивная
Метод сжатия : С потерями
Бит/(Пиксели*Кадры) : 0.223
Размер потока : 138 Мбайт (89%)
Библиотека кодирования : XviD 65
Аудио
Идентификатор : 1
Формат : AC-3
Формат/Информация : Audio Coding 3
Расширение режима : CM (complete main)
Параметр Endianness формата : Big
Идентификатор кодека : 2000
Продолжительность : 12 м.
Вид битрейта : Постоянный
Битрейт : 192 Кбит/сек
Каналы : 2 канала
Расположение каналов : Front: L R
Частота : 48,0 КГц
Частота кадров : 31,250 кадров/сек (1536 spf)
Метод сжатия : С потерями
Размер потока : 16,6 Мбайт (11%)
Выравнивание : Разделение по промежуткам
Продолжительность промежутка : 40 мс. (1,00 видеокадр)
Время предзагрузки промежутка : 500 мс.


Релиз от:
Автор релиза: /



   Похожие торренты   Торрент   Размер 
В этой теме нет новых непрочитанных сообщений. Приключения Танчика / Tank Story [s01] (2012) WEB-DLRip 1080p от ExKinoRay | D

0 | 0

27.33 ГБ

В этой теме нет новых непрочитанных сообщений. Приключения Танчика / Tank Story [s01] (2012) WEB-DLRip 720p от ExKinoRay | D

2 | 0

13.3 ГБ

В этой теме нет новых непрочитанных сообщений. Манхэттенская история любви / Manhattan Love Story [01x01-02] (2014) WEB-DLRip-AVC от ExKinoray

57 | 33

762.74 МБ

В этой теме нет новых непрочитанных сообщений. Манхэттенская история любви / Manhattan Love Story [01x01-03] (2014) WEB-DLRip (AVC) от ExKinoray

15 | 10

1.12 ГБ

В этой теме нет новых непрочитанных сообщений. Манхэттенская история любви / Manhattan Love Story [01x01-04] (2014) WEB-DLRip-AVC от ExKinoray

10 | 6

1.49 ГБ

В этой теме нет новых непрочитанных сообщений. Манхэттенская история любви / Manhattan Love Story [01x01] (2014) WEB-DLRip-AVC от Exkinoray

27 | 5

381.4 МБ

В этой теме нет новых непрочитанных сообщений. Танк / Tank (1984) WEB-DLRip 720p | P2, A

3 | 0

4.21 ГБ




Вы не можете начинать темы
Вы не можете отвечать на сообщения
Вы не можете редактировать свои сообщения
Вы не можете удалять свои сообщения
Вы не можете добавлять вложения

Перейти:  
Для Мосгорсуда, Роскомнадзора и рекламодателей: mosgorsud-torrent[собачка]yandex.ru
 Вход
ppkBB3cker v.2 © 2008-2014 @ PPK
[ Time : 0.031s | 17 Queries | GZIP : Off ]

cron