img image001 image001 image001 image001 image001 image001 image001 image001 image001 image001 image001 image001 image001 image001 image001

Planets Sun Sun Sun
Статистика раздачи
Автор: Nickolas3434 | Размер: 2.17 ГБ | Добавлен: 01 дек 2016
Раздают: 0    Качают: 5
Скачать торрент
Скачать торрент
Описание торрента

СообщениеДобавлено: 01 дек 2016 

Информация о фильме
    Русское название: Красная черепаха
    Оригинальное название: The Red Turtle / La tortue rouge
    Год выхода: 2016
    Жанр: мультфильм, фэнтези
    Режиссер: Майкл Дадок де Уит
    Выпущено: Франция, Бельгия
    Продолжительность: 01:20:49
    Перевод: Не требуется. Нет диалогов


Сюжет фильма
    Мужчина попадает на необитаемый остров. Ему удаётся построить плот, но далеко уплыть не получается — красная черепаха пресекает все его попытки к бегству.


Файл
    Качество: BDRip 720p (исходник Blu-ray Disc)
    Контейнер: MKV (расширение файла)
    Видео: 1280x694, 3214 Кбит/сек, 23.976 кадр/сек, AVC, x264, High@L4.1, 1.85:1, 0.151 Бит/[Пиксели*Кадры]
    Аудио 1: AC-3, 640 Кбит/сек, 6 канала(ов), 48,0 КГц - Оригинал / Французский
    Субтитры: Нет
    Форсированные субтитры: Нет
    Чаптеры (Главы): Есть



Автор Рипа: Группа: мы в VK




Format : Matroska
Format version : Version 2
File size : 2.17 GiB
Duration : 1 h 20 min
Overall bit rate : 3 837 kb/s
Movie name : The Red Turtle.(2016).BDRip.720p.[envy]
Encoded date : UTC 2016-11-30 18:45:40
Writing application : mkvmerge v5.8.0 ('No Sleep / Pillow') built on Sep 2 2012 15:37:04
Writing library : libebml v1.2.3 + libmatroska v1.3.0
Video
ID : 1
Format : AVC
Format/Info : Advanced Video Codec
Format profile : High@L4.1
Format settings, CABAC : Yes
Format settings, ReFrames : 9 frames
Codec ID : V_MPEG4/ISO/AVC
Duration : 1 h 20 min
Bit rate : 3 214 kb/s
Width : 1 280 pixels
Height : 694 pixels
Display aspect ratio : 1.85:1
Frame rate mode : Constant
Frame rate : 23.976 (24000/1001) FPS
Color space : YUV
Chroma subsampling : 4:2:0
Bit depth : 8 bits
Scan type : Progressive
Bits/(Pixel*Frame) : 0.151
Stream size : 1.76 GiB (81%)
Title : The Red Turtle.(2016).BDRip.720p.[envy]
Writing library : x264 core 148 r2721 72d53ab
Encoding settings : cabac=1 / ref=9 / deblock=1:-3:-3 / analyse=0x3:0x113 / me=umh / subme=11 / psy=1 / psy_rd=1.00:0.00 / mixed_ref=1 / me_range=32 / chroma_me=1 / trellis=2 / 8x8dct=1 / cqm=0 / deadzone=21,11 / fast_pskip=0 / chroma_qp_offset=-2 / threads=12 / lookahead_threads=1 / sliced_threads=0 / nr=0 / decimate=1 / interlaced=0 / bluray_compat=0 / constrained_intra=0 / bframes=5 / b_pyramid=2 / b_adapt=2 / b_bias=0 / direct=3 / weightb=1 / open_gop=0 / weightp=2 / keyint=240 / keyint_min=23 / scenecut=40 / intra_refresh=0 / rc=2pass / mbtree=0 / bitrate=3214 / ratetol=2.0 / qcomp=0.60 / qpmin=0 / qpmax=69 / qpstep=4 / cplxblur=20.0 / qblur=0.5 / ip_ratio=1.40 / pb_ratio=1.30 / aq=2:0.70
Language : French
Default : Yes
Forced : No
Audio
ID : 2
Format : AC-3
Format/Info : Audio Coding 3
Mode extension : CM (complete main)
Format settings, Endianness : Big
Codec ID : A_AC3
Duration : 1 h 20 min
Bit rate mode : Constant
Bit rate : 640 kb/s
Channel(s) : 6 channels
Channel positions : Front: L C R, Side: L R, LFE
Sampling rate : 48.0 kHz
Frame rate : 31.250 FPS (1536 spf)
Compression mode : Lossy
Stream size : 370 MiB (17%)
Title : Fre
Language : French
Default : Yes
Forced : No
Menu
00:00:00.000 : :00:00:00.000
00:07:15.685 : :00:07:15.685
00:17:34.720 : :00:17:34.720
00:27:39.366 : :00:27:39.366
00:36:32.148 : :00:36:32.148
00:46:00.257 : :00:46:00.257
00:55:55.143 : :00:55:55.143
01:07:01.893 : :01:07:01.893
01:16:37.426 : :01:16:37.426



   Похожие торренты   Торрент   Размер 
В этой теме нет новых непрочитанных сообщений. Красная черепаха / The Red Turtle / La tortue rouge (2016) BDRip 720p от NNNB | 60 fps

167 | 3

3.03 ГБ

В этой теме нет новых непрочитанных сообщений. Красная черепаха / The Red Turtle / La tortue rouge (2016) BDRip 720p от NNNB

65 | 0

2.17 ГБ

В этой теме нет новых непрочитанных сообщений. Красная черепаха / The Red Turtle / La tortue rouge (2016) BDRip 1080p от NNNB

265 | 11

4.36 ГБ

В этой теме нет новых непрочитанных сообщений. Красная черепаха / The Red Turtle / La tortue rouge (2016) HDRip

377 | 11

1.45 ГБ

В этой теме нет новых непрочитанных сообщений. Красная черепаха / The Red Turtle / La tortue rouge (2016) HDRip от Generalfilm | КПК

11 | 6

336.48 МБ

В этой теме нет новых непрочитанных сообщений. Как львенок и черепаха пели песню / Lion and Turtle (1974) HDTVRip 720p от SDIncorporation

12 | 0

758.99 МБ

В этой теме нет новых непрочитанных сообщений. Бегущая черепаха / Running Turtle (2009) DVDRip от SergV

2 | 1

1.46 ГБ




Вы не можете начинать темы
Вы не можете отвечать на сообщения
Вы не можете редактировать свои сообщения
Вы не можете удалять свои сообщения
Вы не можете добавлять вложения

Перейти:  
Для Мосгорсуда, Роскомнадзора и рекламодателей: mosgorsud-torrent[собачка]yandex.ru
 Вход
ppkBB3cker v.2 © 2008-2014 @ PPK
[ Time : 0.144s | 15 Queries | GZIP : Off ]

Торрент трекер RUTOR.IN, Не можете зайти на rutor.org? Какой новый адрес рутор? Какое зеркало рутор? Не работает rutor.org и зеркала? Тогда наш торрент специально для вас. Rutor.in неофициальное зеркало rutor. В случае если у Вас заблокирован rutor или вдруг Вы не можете на него зайти, то Вы без труда сможете скачать бесплатно и без рекламы последние новинки кино, игр, сериалов и прочего у нас, на Rutor.in. Не нужно использовать прокси, чтобы зайти на рутор, достаточно воспользоваться нашим ресурсом. Все новые фильмы, игры, сериалы, книги и музыка за 2013 и 2014 годы через торрент бесплатно. Скачивайте фильмы в хорошем качестве, игры для пк, xbox, playstation без регистрации. У нас вы найдете новые Зарубежные сериалы и Русские сериалы 2013, 2014, 2015 годов. Оставайтесь с нами, качайте любимые фильмы, игры, сериалы, книги и музыку.