img image001 image001 image001 image001 image001 image001 image001 image001 image001 image001 image001 image001 image001 image001 image001

Planets Sun Sun Sun

COVID-19 - Последняя информация о коронавирусе на сайте Минздрава


Статистика раздачи
Автор: PriZraK | Размер: 4.76 ГБ | Добавлен: 12 дек 2016
Раздают: 1    Качают: 0
Скачать торрент
Скачать торрент
Описание торрента

СообщениеДобавлено: 12 дек 2016 


Информация о фильме
Название: Необычные сказки
Оригинальное название: Extraordinary Tales
Год выхода: 2013
Жанр: Мультфильм, детектив
Режиссер: Рауль Гарсиа
В ролях: Роджер Корман, Гильермо дель Торо, Корнелия Функе, Стивен Хьюз, Кристофер Ли, Бела Лугоши, Джулиан Сэндс
О фильме:
Душа Эдгара Аллана По предстает в образе печально известного ворона. На кладбище у могилы его горячо любимой жены Вирджинии он встречается со смертью. Смерть говорит, что путь его в этом бренном мире окончен и желает забрать душу писателя с собой. Но Эдгар старается оттянуть время, рассказывая смерти свои невероятные истории, переча ее утверждениям. Тем самым в этой жуткой повествовательной игре со смертью ему удается задержаться подольше на земле среди живых. Необычная авторская интерпретация на произведения Эдгара Аллана По: «Падение дома Ашеров», «Колодец и маятник», «Маска Красной смерти», «Сердце-обличитель» и «Правда о том, что случилось с мистером Вальдемаром». На первый взгляд ничем не схожие друг с другом рассказы, но если вглядеться в них повнимательней, то все они имеют одну общую черту.

Страна: Люксембург, США, Испания, Бельгия
Студия: Mélusine Productions
Продолжительность: 01:13:06
Перевод:
Любительский двухголосый (den904&DeadSno)
Любительский одноголосый (Max Nabokov)
Файл
Кодек: H.264
Качество: BDRip 1080p
Видео: 1920x1040; 7050 Кбит/сек; 23,976 (24000/1001) кадра/сек
Звук:
English: DTS; 48,0 КГц; 24 бит; 1509 Кбит/сек; 6 каналов
Russian (L2): AC3; 48,0 КГц; 16 бит; 384 Кбит/сек; 6 каналов [den904&DeadSno]
Russian (L1): AC3; 48,0 КГц; 16 бит; 384 Кбит/сек; 6 каналов [Max Nabokov]
Семпл
Общее
Уникальный идентификатор : 197500751524036693028893551454866351037 (0x949542DA10B7FC60B7A663B999E7A3BD)
Полное имя : D:Фильмы____Необычные сказкиextraordinary.tales.2013.1080p.bluray.x264-bipolar.mkv
Формат : Matroska
Версия формата : Version 4 / Version 2
Размер файла : 4,76 Гбайт
Продолжительность : 1 ч. 13 м.
Общий поток : 9314 Кбит/сек
Дата кодирования : UTC 2016-12-11 12:51:03
Программа кодирования : mkvmerge v9.5.0 ('Quiet Fire') 64bit
Библиотека кодирования : libebml v1.3.4 + libmatroska v1.4.5
Видео
Идентификатор : 1
Формат : AVC
Формат/Информация : Advanced Video Codec
Профиль формата : High@L4.1
Параметр CABAC формата : Да
Параметр ReFrames формата : 4 кадра
Идентификатор кодека : V_MPEG4/ISO/AVC
Продолжительность : 1 ч. 13 м.
Битрейт : 7050 Кбит/сек
Ширина : 1920 пикселей
Высота : 1040 пикселей
Соотношение сторон : 1,85:1
Режим частоты кадров : Постоянный
Частота кадров : 23,976 (24000/1001) кадра/сек
Цветовое пространство : YUV
Субдискретизация насыщенности : 4:2:0
Битовая глубина : 8 бит
Тип развёртки : Прогрессивная
Бит/(Пиксели*Кадры) : 0.147
Размер потока : 3,59 Гбайт (76%)
Библиотека кодирования : x264 core 148 r2705 3f5ed56
Настройки программы : cabac=1 / ref=4 / deblock=1:0:0 / analyse=0x3:0x133 / me=umh / subme=7 / psy=1 / psy_rd=1.00:0.00 / mixed_ref=1 / me_range=16 / chroma_me=1 / trellis=1 / 8x8dct=1 / cqm=0 / deadzone=21,11 / fast_pskip=0 / chroma_qp_offset=-2 / threads=12 / lookahead_threads=2 / sliced_threads=0 / nr=0 / decimate=1 / interlaced=0 / bluray_compat=0 / constrained_intra=0 / bframes=3 / b_pyramid=2 / b_adapt=2 / b_bias=0 / direct=3 / weightb=1 / open_gop=0 / weightp=2 / keyint=250 / keyint_min=23 / scenecut=40 / intra_refresh=0 / rc_lookahead=50 / rc=2pass / mbtree=1 / bitrate=7050 / ratetol=1.0 / qcomp=0.60 / qpmin=0 / qpmax=69 / qpstep=4 / cplxblur=20.0 / qblur=0.5 / ip_ratio=1.40 / aq=1:1.00
Язык : English
Default : Да
Forced : Нет
Аудио #1
Идентификатор : 2
Формат : DTS
Формат/Информация : Digital Theater Systems
Режим : 16
Параметр Endianness формата : Big
Идентификатор кодека : A_DTS
Продолжительность : 1 ч. 13 м.
Вид битрейта : Постоянный
Битрейт : 1509 Кбит/сек
Каналы : 6 каналов
Расположение каналов : Front: L C R, Side: L R, LFE
Частота : 48,0 КГц
Частота кадров : 93,750 кадра/сек (512 spf)
Битовая глубина : 24 бит
Метод сжатия : С потерями
Размер потока : 789 Мбайт (16%)
Язык : English
Default : Нет
Forced : Нет
Аудио #2
Идентификатор : 3
Формат : AC-3
Формат/Информация : Audio Coding 3
Расширение режима : CM (complete main)
Параметр Endianness формата : Big
Идентификатор кодека : A_AC3
Продолжительность : 1 ч. 12 м.
Вид битрейта : Постоянный
Битрейт : 384 Кбит/сек
Каналы : 6 каналов
Расположение каналов : Front: L C R, Side: L R, LFE
Частота : 48,0 КГц
Частота кадров : 31,250 кадров/сек (1536 spf)
Битовая глубина : 16 бит
Метод сжатия : С потерями
Задержка видео : 5 с. 500 мс.
Размер потока : 200 Мбайт (4%)
Заголовок : den904&DeadSno
Язык : Russian
Default : Нет
Forced : Нет
Аудио #3
Идентификатор : 4
Формат : AC-3
Формат/Информация : Audio Coding 3
Расширение режима : CM (complete main)
Параметр Endianness формата : Big
Идентификатор кодека : A_AC3
Продолжительность : 1 ч. 12 м.
Вид битрейта : Постоянный
Битрейт : 384 Кбит/сек
Каналы : 6 каналов
Расположение каналов : Front: L C R, Side: L R, LFE
Частота : 48,0 КГц
Частота кадров : 31,250 кадров/сек (1536 spf)
Битовая глубина : 16 бит
Метод сжатия : С потерями
Задержка видео : 5 с. 500 мс.
Размер потока : 200 Мбайт (4%)
Заголовок : Max Nabokov
Язык : Russian
Default : Нет
Forced : Нет
Меню
00:00:00.000 : en:00:00:00.000
00:10:43.351 : en:00:10:43.351
00:19:56.195 : en:00:19:56.195
00:29:12.209 : en:00:29:12.209
00:41:37.620 : en:00:41:37.620
00:50:24.772 : en:00:50:24.772
00:56:25.382 : en:00:56:25.382
01:08:47.707 : en:01:08:47.707

Рип от: BiPOLAR

   Похожие торренты   Торрент   Размер 
В этой теме нет новых непрочитанных сообщений. Пираты Карибского моря: Мертвецы не рассказывают сказки / Pirates of the Caribbean: Dead Men Tell No Tales (2017) BDRip 1080p от ExKinoRay

2460 | 236

11.53 ГБ

В этой теме нет новых непрочитанных сообщений. Пираты Карибского моря: Мертвецы не рассказывают сказки / Pirates of the Caribbean: Dead Men Tell No Tales (2017) BDRip 1080p | Лицензия | ATV

1547 | 89

8.66 ГБ

В этой теме нет новых непрочитанных сообщений. Пираты Карибского моря: Мертвецы не рассказывают сказки / Pirates of the Caribbean: Dead Men Tell No Tales (2017) BDRip-HEVC 1080p от ХиМиК | Лицензия

1609 | 71

7.81 ГБ

В этой теме нет новых непрочитанных сообщений. Пираты Карибского моря: Мертвецы не рассказывают сказки / Pirates of the Caribbean: Dead Men Tell No Tales (2017) BDRip 1080p от Ash61| 3D-Video | halfOU

1026 | 298

14.36 ГБ

В этой теме нет новых непрочитанных сообщений. Пираты Карибского моря: Мертвецы не рассказывают сказки / Pirates of the Caribbean: Dead Men Tell No Tales (2017) BDRip 1080p от ExKinoRay | 3D-Video | HSBS | Лицензия

70 | 9

19.9 ГБ

В этой теме нет новых непрочитанных сообщений. Пираты Карибского моря: Мертвецы не рассказывают сказки / Pirates of the Caribbean: Dead Men Tell No Tales (2017) BDRip 1080p от New-Team & qqss44 | Лицензия

1256 | 70

11.53 ГБ

В этой теме нет новых непрочитанных сообщений. Сказки юга / Southland Tales (2006) BDRip | А

33 | 3

1.46 ГБ




Вы не можете начинать темы
Вы не можете отвечать на сообщения
Вы не можете редактировать свои сообщения
Вы не можете удалять свои сообщения
Вы не можете добавлять вложения

Перейти:  
Контактная информация: rstracker[пёсик]yandex.ru
 Вход
ppkBB3cker v.2 © 2008-2014 @ PPK
[ Time : 0.017s | 17 Queries | GZIP : Off ]

cron