img image001 image001 image001 image001 image001 image001 image001 image001 image001 image001 image001 image001 image001 image001 image001 image001

Planets Sun Sun Sun
Статистика раздачи
Автор: PriZraK | Размер: 2.12 ГБ | Добавлен: 24 дек 2016
Раздают: 0    Качают: 0
Скачать торрент
Скачать торрент
Описание торрента

СообщениеДобавлено: 24 дек 2016 


Ворона-проказница: Большие гонки / Der kleine Rabe Socke - Das große Rennen
Страна: Германия
Год выпуска: 2016
Жанр: мультфильм, приключения, семейный
Продолжительность: 01:12:52
Перевод: Одноголосый закадровый - П. Шварко
Оригинальная аудиодорожка: нет
Режиссер: Зандор Йессе, Уте фон Мюнхов-Поль
Актеры: Ян Дилэй, Катарина Тальбах, Анна Тальбах, Герхард Деллинг, Константин фон Ящерофф, Сантьяго Цизмер, Георг Трифон, Монти Арнольд, Геральд Шаале, Янник Эндеманн
Описание фильма: Весёлая история, где Зоке должен найти своё призвание, о совместной работе и участии в захватывающих и бурных гонках через лес, вместе с друзьями...

Файл
Качество видео: BDRip 720p Исходник: Blu-ray Disc
Формат: MKV Видео кодек: MPEG-4 AVC Аудио кодек: AC3
Видео: 1280x690 (1.85:1) at 24.000 fps, AVC at 3633 kbps avg, 0.171 bit/pixel
Аудио: 48 kHz, AC3 Dolby Digital, 3/2 (L,C,R,l,r) + LFE ch, 448.00 kbps avg
Навигация по главам: Есть
Автор рипа & Релиз группа

Ворона-проказница 2.2015.720p.BluRay.x264-LEONARDO.mkv
Формат : Matroska
Версия формата : Version 2
Размер файла : 2,12 Гбайт
Продолжительность : 1 ч. 12 м.
Общий поток : 4164 Кбит/сек
Название фильма : Release by Leonardo for leohd59.ru
Дата кодирования : UTC 2016-12-24 09:25:04
Программа кодирования : mkvmerge v5.0.1 ('Es ist Sommer') built on Oct 23 2011 00:46:40
Библиотека кодирования : libebml v1.2.2 + libmatroska v1.3.0
Обложка : Yes
Attachments : cover.png
Видео
Идентификатор : 1
Формат : AVC
Формат/Информация : Advanced Video Codec
Профиль формата : High@L4.1
Параметр CABAC формата : Да
Параметр ReFrames формата : 9 кадров
Идентификатор кодека : V_MPEG4/ISO/AVC
Продолжительность : 1 ч. 12 м.
Битрейт : 3633 Кбит/сек
Ширина : 1280 пикселей
Высота : 690 пикселей
Соотношение сторон : 1,85:1
Режим частоты кадров : Постоянный
Частота кадров : 24,000 кадра/сек
Цветовое пространство : YUV
Субдискретизация насыщенности : 4:2:0
Битовая глубина : 8 бит
Тип развёртки : Прогрессивная
Бит/(Пиксели*Кадры) : 0.171
Размер потока : 1,85 Гбайт (87%)
Библиотека кодирования : x264 core 125 r2208 d9d2288
Настройки программы : cabac=1 / ref=9 / deblock=1:-3:-3 / analyse=0x3:0x133 / me=umh / subme=11 / psy=1 / psy_rd=1.00:0.20 / mixed_ref=1 / me_range=32 / chroma_me=1 / trellis=2 / 8x8dct=1 / cqm=0 / deadzone=21,11 / fast_pskip=0 / chroma_qp_offset=-3 / threads=12 / lookahead_threads=2 / sliced_threads=0 / nr=0 / decimate=1 / interlaced=0 / bluray_compat=0 / constrained_intra=0 / bframes=12 / b_pyramid=2 / b_adapt=2 / b_bias=0 / direct=3 / weightb=1 / open_gop=0 / weightp=2 / keyint=250 / keyint_min=24 / scenecut=40 / intra_refresh=0 / rc=crf / mbtree=0 / crf=17.0 / qcomp=0.60 / qpmin=0 / qpmax=69 / qpstep=4 / ip_ratio=1.40 / pb_ratio=1.30 / aq=1:1.00
Язык : English
Default : Да
Forced : Нет
Аудио
Идентификатор : 2
Формат : AC-3
Формат/Информация : Audio Coding 3
Расширение режима : CM (complete main)
Параметр Endianness формата : Big
Идентификатор кодека : A_AC3
Продолжительность : 1 ч. 12 м.
Вид битрейта : Постоянный
Битрейт : 448 Кбит/сек
Каналы : 6 каналов
Расположение каналов : Front: L C R, Side: L R, LFE
Частота : 48,0 КГц
Частота кадров : 31,250 кадров/сек (1536 spf)
Метод сжатия : С потерями
Размер потока : 234 Мбайт (11%)
Язык : Russian
Default : Да
Forced : Нет
Текст
Идентификатор : 3
Формат : UTF-8
Идентификатор кодека : S_TEXT/UTF8
Идентификатор кодека/Информация : UTF-8 Plain Text
Язык : German
Default : Нет
Forced : Нет
Меню
00:00:00.000 : en:00:00:00.000
00:09:47.375 : en:00:09:47.375
00:21:31.958 : en:00:21:31.958
00:31:47.708 : en:00:31:47.708
00:43:01.125 : en:00:43:01.125
00:52:46.083 : en:00:52:46.083
01:02:10.875 : en:01:02:10.875
01:09:02.167 : en:01:09:02.167
00:53:35.629 : en:00:53:35.629
01:02:57.774 : en:01:02:57.774
01:07:26.668 : en:01:07:26.668
01:09:27.080 : en:01:09:27.080





   Похожие торренты   Торрент   Размер 
В этой теме нет новых непрочитанных сообщений. Ворона-проказница 2: Большие гонки / Der kleine Rabe Socke - Das große Rennen (2015) BDRip от MegaPeer | P1

4 | 0

1.46 ГБ

В этой теме нет новых непрочитанных сообщений. Ворона-проказница / Der kleine Rabe Socke (2012) BDRip от HQCLUB | P | Лицензия

55 | 4

1.45 ГБ

В этой теме нет новых непрочитанных сообщений. Ворона-проказница / Der kleine Rabe Socke (2012) HDRip | Лицензия

203 | 20

1.36 ГБ

В этой теме нет новых непрочитанных сообщений. Ворона-проказница / Der kleine Rabe Socke (2013) DVD5 от New-Team | Лицензия

66 | 60

4.04 ГБ

В этой теме нет новых непрочитанных сообщений. Его последний забег / Sein letztes Rennen (2013) BDRip 720p от CINEMANIA | L1

62 | 14

3.08 ГБ

В этой теме нет новых непрочитанных сообщений. Очаровательная проказница / La belle noiseuse (1991) BDRip 720p | P

24 | 14

12.82 ГБ

В этой теме нет новых непрочитанных сообщений. Гол! / Goal! (2005) BDRip 720p от Leonardo | D

40 | 5

3.68 ГБ




Вы не можете начинать темы
Вы не можете отвечать на сообщения
Вы не можете редактировать свои сообщения
Вы не можете удалять свои сообщения
Вы не можете добавлять вложения

Перейти:  
 Вход
ppkBB3cker v.2 © 2008-2014 @ PPK
[ Time : 0.032s | 19 Queries | GZIP : Off ]

cron