img image001 image001 image001 image001 image001 image001 image001 image001 image001 image001 image001 image001 image001 image001 image001
Planets Sun Sun Sun
Статистика раздачи
Автор: PriZraK | Размер: 2.52 ГБ | Добавлен: 07 янв 2017
Раздают: 2    Качают: 4
Скачать торрент
Скачать торрент
Описание торрента

СообщениеДобавлено: 07 янв 2017 

Информация о фильме
Название: Звёздная Принцесса и Силы Зла
Другие названия: Стар против Сил Зла (Звезда против Сил Зла)
Оригинальное название: Star vs. the Forces of Evil
Год выхода: 2016
Страна: США, Disney Television Animation, Disney XD, Daron Nefcy Productions
Жанр: Фантастика, комедия, приключения, мультсериал
Продолжительность: 9 x ~ 00:22:09
Перевод: Дублированный (Кириллица)

Режиссеры: Дэвид Вассон, Пьеро Пилузо, Аарон Хэммерсли, Майкл Маллен

Роли озвучивали: Артт Батлер, Джон Хидер, Адам МакАртур, Мина Нодзи, Брайан Посен, Райдер Стронг, Иден Шер
Роли дублировали: Наталья Терешкова, Иван Калинин, Александр Матвеев, Алексей Войтюк, Анастасия Лапина. ...

О фильме: После многочисленных схваток с монстрами на своей родной планете Муни, Стар Батерфлай переезжает на землю, чтобы жить с семьей Диаза. Но не тут-то было, спокойной жизни не видать нашей героине даже тут! Злодеев прибывает все больше, они есть даже в средней школе. И все, чтобы сохранить волшебную палочку, таящую истинную магию.

2 сезон - 2016 (12 июля - 22 ноября 2016)

s2e01. My New Wand! + Ludo in the Wild
s2e02. Mr. Candle Cares + Red Belt
s2e03. Star on Wheels + Fetch
s2e04. Star vs. Echo Creek + Wand to Wand
s2e05. Starstruck + Camping Trip
s2e06. Starsitting + On the Job
s2e07. Goblin Dogs + By the Book
s2e08. Game of Flags + Girls' Day Out
s2e09. Sleepover + Gift of the Card



Доп. информация:
Семпл



Файл
Формат: AVI
Качество: WEB-DLRip
Видео: 720x400 (1.80:1), 23.976 fps, XviD build 65 ~1603 kbps avg, 0.232 bit/pixel
Звук: 48 kHz, AC3 Dolby Digital, 2/0 (L,R) ch, ~192.00 kbps avg
Субтитры: нет

s2e07. Goblin Dogs + By the Book. Dub.Xvid-merci-.avi
Format : AVI
Format/Info : Audio Video Interleave
File size : 286 MiB
Duration : 22 min 9 s
Overall bit rate : 1 805 kb/s
Writing application : VirtualDubMod 1.5.10.3 | www.virtualdub-fr.org || (build 2550/release)
Writing library : VirtualDubMod build 2550/release

Video
ID : 0
Format : MPEG-4 Visual
Format profile : Advanced Simple@L5
Format settings, BVOP : 1
Format settings, QPel : No
Format settings, GMC : No warppoints
Format settings, Matrix : Default (MPEG)
Codec ID : XVID
Codec ID/Hint : XviD
Duration : 22 min 9 s
Bit rate : 1 603 kb/s
Width : 720 pixels
Height : 400 pixels
Display aspect ratio : 16:9
Frame rate : 23.976 (24000/1001) FPS
Color space : YUV
Chroma subsampling : 4:2:0
Bit depth : 8 bits
Scan type : Progressive
Compression mode : Lossy
Bits/(Pixel*Frame) : 0.232
Stream size : 254 MiB (89%)
Writing library : XviD 65

Audio
ID : 1
Format : AC-3
Format/Info : Audio Coding 3
Mode extension : CM (complete main)
Format settings, Endianness : Big
Codec ID : 2000
Duration : 22 min 9 s
Bit rate mode : Constant
Bit rate : 192 kb/s
Channel(s) : 2 channels
Channel positions : Front: L R
Sampling rate : 48.0 kHz
Frame rate : 31.250 FPS (1536 spf)
Bit depth : 16 bits
Compression mode : Lossy
Stream size : 30.4 MiB (11%)
Alignment : Split accross interleaves
Interleave, duration : 42 ms (1.00 video frame)
Interleave, preload duratio : 500 ms



Релиз от:
Автор релиза: /



   Похожие торренты   Торрент   Размер 
В этой теме нет новых непрочитанных сообщений. Звёздная принцесса и силы зла / Star vs the Forces of Evil [02х01-10,12-19,21-22 из 22] (2016-2017) WEB-DLRip от ExKinoRay | D

29 | 8

5.59 ГБ

В этой теме нет новых непрочитанных сообщений. Звёздная принцесса и силы зла / Star vs the Forces of Evil [s01] (2015) WEB-DLRip от ExKinoRay | D

50 | 3

3.5 ГБ

В этой теме нет новых непрочитанных сообщений. Звёздная принцесса и силы зла / Star vs the Forces of Evil [S01] (2015) WEB-DLRip 1080p | D, P2, L

21 | 60

12.27 ГБ

В этой теме нет новых непрочитанных сообщений. Звёздная Принцесса и Силы Зла / Star vs the Forces of Evil [S01] (2014-2015) WEB-DLRip 1080p

42 | 22

11.42 ГБ

В этой теме нет новых непрочитанных сообщений. Стар против Сил Зла / Star vs the Forces of Evil [s02] (2016) WEB-DLRip от ExKinoRay | L2

2 | 2

3.9 ГБ

В этой теме нет новых непрочитанных сообщений. Стар против Сил Зла / Star vs the Forces of Evil [s02x01-11 из 14)] (2016) WEB-DLRip от ExKinoRay | L2

0 | 0

3.06 ГБ

В этой теме нет новых непрочитанных сообщений. Стар против Сил Зла / Star vs the Forces of Evil [s02x01-11 из 14)] (2016) WEB-DLRip от ExKinoRay | L2

1 | 2

3.06 ГБ




Вы не можете начинать темы
Вы не можете отвечать на сообщения
Вы не можете редактировать свои сообщения
Вы не можете удалять свои сообщения
Вы не можете добавлять вложения

Перейти:  
Для Мосгорсуда, Роскомнадзора и рекламодателей: mosgorsud-torrent[собачка]yandex.ru
 Вход
ppkBB3cker v.2 © 2008-2014 @ PPK
[ Time : 0.050s | 18 Queries | GZIP : Off ]

cron