img image001 image001 image001 image001 image001 image001 image001 image001 image001 image001 image001 image001 image001 image001 image001

Planets Sun Sun Sun
Статистика раздачи
Автор: PriZraK | Размер: 82.85 МБ | Добавлен: 08 янв 2017
Раздают: 3    Качают: 0
Скачать торрент
Скачать торрент
Описание торрента

СообщениеДобавлено: 08 янв 2017 



Информация о фильме
Название: Ancient Russian Lullaby - Колыбельные
Год выхода: 2014
Жанр: Мультфильм, музыка
Режиссер: Ancient Russian Lullaby
В ролях: Лесные звери

О фильме:
Колыбельные песенки для самых маленьких
Страна: Россия
Продолжительность: 00:03:32
Перевод: Русский

Файл
Кодек: XviD
Качество: WEB-DLRip
Видео: 720x400 (1.80:1), 29.970 fps, XviD build 73 ~1784 kbps avg, 0.21 bit/pixel
Видео2: 720x400 (1.80:1), 29.970 fps, XviD build 73 ~1653 kbps avg, 0.19 bit/pixel
Звук: 44.100 kHz, MPEG Layer 3, 2 ch, ~128.00 kbps avg
Субтитры: Есть

Семпл

1) Ancient Russian Lullaby - Баю-баюшки-баю не ложися на краю
2) Ancient Russian Lullaby - Ты свети звезда моя
General
Complete name : D:Изготовление рипа1bel`naiaAncient Russian Lullaby - Bayiu-bay.avi
Format : AVI
Format/Info : Audio Video Interleave
File size : 48.8 MiB
Duration : 3 min 32 s
Overall bit rate : 1 924 kb/s
Writing application : VirtualDubMod 1.5.10.3 | www.virtualdub-fr.org || (build 2550/release)
Writing library : VirtualDubMod build 2550/release

Video
ID : 0
Format : MPEG-4 Visual
Format profile : Advanced Simple@L5
Format settings, BVOP : 1
Format settings, QPel : No
Format settings, GMC : No warppoints
Format settings, Matrix : Custom
Codec ID : XVID
Codec ID/Hint : XviD
Duration : 3 min 32 s
Bit rate : 1 784 kb/s
Width : 720 pixels
Height : 400 pixels
Display aspect ratio : 16:9
Frame rate : 29.970 (30000/1001) FPS
Color space : YUV
Chroma subsampling : 4:2:0
Bit depth : 8 bits
Scan type : Progressive
Compression mode : Lossy
Bits/(Pixel*Frame) : 0.207
Stream size : 45.2 MiB (93%)
Writing library : XviD 73

Audio
ID : 1
Format : MPEG Audio
Format version : Version 1
Format profile : Layer 3
Codec ID : 55
Codec ID/Hint : MP3
Duration : 3 min 32 s
Bit rate mode : Constant
Bit rate : 128 kb/s
Channel(s) : 2 channels
Sampling rate : 44.1 kHz
Compression mode : Lossy
Stream size : 3.25 MiB (7%)
Alignment : Split accross interleaves
Interleave, duration : 33 ms (1.00 video frame)
Interleave, preload duratio : 500 ms
Writing library : LAME3.99r
Encoding settings : -m s -V 4 -q 2 -lowpass 17 -b 128
++++++++++++++++++++++++++++++++++
General
Complete name : D:Изготовление рипа1bel`naiaAncient Russian Lullaby - ty sveti zvezda moyia.avi
Format : AVI
Format/Info : Audio Video Interleave
File size : 34.1 MiB
Duration : 2 min 39 s
Overall bit rate : 1 793 kb/s
Writing application : VirtualDubMod 1.5.10.3 | www.virtualdub-fr.org || (build 2550/release)
Writing library : VirtualDubMod build 2550/release

Video
ID : 0
Format : MPEG-4 Visual
Format profile : Advanced Simple@L5
Format settings, BVOP : 1
Format settings, QPel : No
Format settings, GMC : No warppoints
Format settings, Matrix : Custom
Codec ID : XVID
Codec ID/Hint : XviD
Duration : 2 min 39 s
Bit rate : 1 653 kb/s
Width : 720 pixels
Height : 400 pixels
Display aspect ratio : 16:9
Frame rate : 29.970 (30000/1001) FPS
Color space : YUV
Chroma subsampling : 4:2:0
Bit depth : 8 bits
Scan type : Progressive
Compression mode : Lossy
Bits/(Pixel*Frame) : 0.192
Stream size : 31.4 MiB (92%)
Writing library : XviD 73

Audio
ID : 1
Format : MPEG Audio
Format version : Version 1
Format profile : Layer 3
Codec ID : 55
Codec ID/Hint : MP3
Duration : 2 min 39 s
Bit rate mode : Constant
Bit rate : 128 kb/s
Channel(s) : 2 channels
Sampling rate : 44.1 kHz
Compression mode : Lossy
Stream size : 2.43 MiB (7%)
Alignment : Split accross interleaves
Interleave, duration : 33 ms (1.00 video frame)
Interleave, preload duratio : 500 ms
Writing library : LAME3.99r
Encoding settings : -m s -V 4 -q 2 -lowpass 17 -b 128


Релиз от:



   Похожие торренты   Торрент   Размер 
В этой теме нет новых непрочитанных сообщений. Колыбельная / Lullaby (2014) WEB-DLRip | P

279 | 17

1.46 ГБ

В этой теме нет новых непрочитанных сообщений. DJ Feel - TranceMission Russian Best 2016 [23-01] (2017) MP3 от ImperiaFilm

38 | 0

276.14 МБ

В этой теме нет новых непрочитанных сообщений. Колыбельные песни [01-06 из 06] (2013 - 2014) WEBRip

400 | 13

122.39 МБ

В этой теме нет новых непрочитанных сообщений. Кухня в Париже (2014) WEB-DLRip-AVC | iTunes Russian

372 | 56

700.59 МБ

В этой теме нет новых непрочитанных сообщений. Всё и сразу (2014) WEB-DLRip-AVC от ExKinoRay | iTunes Russian

552 | 27

2.24 ГБ

В этой теме нет новых непрочитанных сообщений. Кухня в Париже (2014) WEB-DLRip-AVC от ExKinoRay | iTunes Russian

354 | 3

2.19 ГБ

В этой теме нет новых непрочитанных сообщений. Кухня в Париже (2014) WEB-DLRip-AVC от ExKinoRay | iTunes Russian

591 | 74

2.19 ГБ




Вы не можете начинать темы
Вы не можете отвечать на сообщения
Вы не можете редактировать свои сообщения
Вы не можете удалять свои сообщения
Вы не можете добавлять вложения

Перейти:  
Для Мосгорсуда, Роскомнадзора и рекламодателей: mosgorsud-torrent[собачка]yandex.ru
 Вход
ppkBB3cker v.2 © 2008-2014 @ PPK
[ Time : 0.018s | 15 Queries | GZIP : Off ]

Торрент трекер RUTOR.IN, Не можете зайти на rutor.org? Какой новый адрес рутор? Какое зеркало рутор? Не работает rutor.org и зеркала? Тогда наш торрент специально для вас. Rutor.in неофициальное зеркало rutor. В случае если у Вас заблокирован rutor или вдруг Вы не можете на него зайти, то Вы без труда сможете скачать бесплатно и без рекламы последние новинки кино, игр, сериалов и прочего у нас, на Rutor.in. Не нужно использовать прокси, чтобы зайти на рутор, достаточно воспользоваться нашим ресурсом. Все новые фильмы, игры, сериалы, книги и музыка за 2013 и 2014 годы через торрент бесплатно. Скачивайте фильмы в хорошем качестве, игры для пк, xbox, playstation без регистрации. У нас вы найдете новые Зарубежные сериалы и Русские сериалы 2013, 2014, 2015 годов. Оставайтесь с нами, качайте любимые фильмы, игры, сериалы, книги и музыку.
cron