img image001 image001 image001 image001 image001 image001 image001 image001 image001 image001 image001 image001 image001 image001 image001

Planets Sun Sun Sun
Статистика раздачи
Автор: PriZraK | Размер: 3.29 ГБ | Добавлен: 09 янв 2017
Раздают: 51    Качают: 10
Скачать торрент
Скачать торрент
Описание торрента

СообщениеДобавлено: 09 янв 2017 

Информация о фильме
Название: ЧиЧиЛэнд
Оригинальное название: ChiChi Land
Год выхода: 2015
Страна: Китай
Жанр: Мультсериал, детский, приключения, комедия
Продолжительность: 52 х ~ 00:07:00
Перевод: Профессиональный дублированный

Режиссер: Guohua Xie

Роли озвучивали:

О фильме: В удивительном городе ЧичиЛэнде, построенном из деталей волшебного конструктора, живут удивительные жители. Они обладают магическими способностями и свободно превращаются во что угодно. Хэппи — маленький смышленый желтый автомобиль. Он вместе со своими друзьями Спиди, Кики и Джипом придумывает самые неожиданные способы решения очень непростых задач и преодолевает всевозможные трудности. Каждый эпизод — это веселая и поучительная история о приключениях наших героев.

01. Комбинация
02. Я-чемпион
03. Танк Джуниор
04. Кто выше
05. Новый друг
06. Придется потрудиться
07. Обмен
08. Обмен
09. Строим мост
10. Друг, держись!
11. Отдых у моря
12. Будь внимателен!
13. Мои крылья
14. Северное море
15. Чистый город
16. Мы вместе!
17. Корабль
18. Длинный поезд
19. Цирк
20. Монстры
21. После дождя
22. Правила движения
23. Важная работа
24. Не горюй
25. Не горюй
26. Надежда на завтра
27. Осторожно, огонь!
28. Мусорный монстр
29. Важный груз
30. Как помыть танк_
31. Какого я цвета_
32. Загадочные детали
33. Падающие звезды
34. Строительство музея
35. Дядюшка Карго
36. Все в порядке
37. Большой робот
38. Спиди и Бако
39. Черный осьминог
40. Светофор
41. Добрые намерения
42. Длинная очередь
43. До свидания
44. Ответственность
45. Пора отдохнуть
46. Нелетная погода
47. Авария
48. Сильный ветер
49. Вспомнить всё
50. Кризис
51. В поисках нового
52. Новый мир



Доп. информация:
премьера (РФ) 1 декабря 2016

Семпл



Файл
Формат: AVI
Качество: WEB-DLRip
Видео: 720x400 (1.80:1), 25 fps, XviD build 65 ~1601 kbps avg, 0.22 bit/pixel
Звук: 48 kHz, AC3 Dolby Digital, 2/0 (L,R) ch, ~192.00 kbps avg
Субтитры: нет

49. Вспомнить всё. W-XviD-merci-.avi
Format : AVI
Format/Info : Audio Video Interleave
File size : 64.5 MiB
Duration : 5 min 0 s
Overall bit rate : 1 803 kb/s
Writing application : VirtualDubMod 1.5.10.3 | www.virtualdub-fr.org || (build 2550/release)
Writing library : VirtualDubMod build 2550/release

Video
ID : 0
Format : MPEG-4 Visual
Format profile : Advanced Simple@L5
Format settings, BVOP : 1
Format settings, QPel : No
Format settings, GMC : No warppoints
Format settings, Matrix : Default (MPEG)
Codec ID : XVID
Codec ID/Hint : XviD
Duration : 5 min 0 s
Bit rate : 1 601 kb/s
Width : 720 pixels
Height : 400 pixels
Display aspect ratio : 16:9
Frame rate : 25.000 FPS
Color space : YUV
Chroma subsampling : 4:2:0
Bit depth : 8 bits
Scan type : Progressive
Compression mode : Lossy
Bits/(Pixel*Frame) : 0.222
Stream size : 57.3 MiB (89%)
Writing library : XviD 65

Audio
ID : 1
Format : AC-3
Format/Info : Audio Coding 3
Mode extension : CM (complete main)
Format settings, Endianness : Big
Codec ID : 2000
Duration : 5 min 0 s
Bit rate mode : Constant
Bit rate : 192 kb/s
Channel(s) : 2 channels
Channel positions : Front: L R
Sampling rate : 48.0 kHz
Frame rate : 31.250 FPS (1536 spf)
Bit depth : 16 bits
Compression mode : Lossy
Stream size : 6.87 MiB (11%)
Alignment : Split accross interleaves
Interleave, duration : 40 ms (1.00 video frame)
Interleave, preload duratio : 500 ms



Релиз от:
Автор релиза: /



   Похожие торренты   Торрент   Размер 
В этой теме нет новых непрочитанных сообщений. ЧиЧиЛэнд / ChiChi Land [s01] (2015) WEB-DLRip 720p от ExKinoRay | D

34 | 0

4.9 ГБ

В этой теме нет новых непрочитанных сообщений. Джейк и пираты Нетландии / Jake and the Never Land Pirates [s01-03: 01-100 из ??] (2011-2015) WEB-DLRip-AVC от -merci- | D

196 | 90

11.31 ГБ

В этой теме нет новых непрочитанных сообщений. VA - Rap от CD Land (2005) MP3 от BestSound ExKinoRay

0 | 2

146.17 МБ

В этой теме нет новых непрочитанных сообщений. Полицейские / Cop Land (1997) DVDRip от ExKinoRay

0 | 4

1.71 ГБ

В этой теме нет новых непрочитанных сообщений. Left 4 Dead 2 [Maps Pack Land] [Release] (2011) PC от Land-Game

1 | 3

2.09 ГБ

В этой теме нет новых непрочитанных сообщений. Земля вампиров / Stake Land (2010) HDRip-AVC от ExKinoRay | D

61 | 0

745.7 МБ

В этой теме нет новых непрочитанных сообщений. Russell Morris - Van Diemen's Land (2014) MP3 от BestSound ExKinoRay

80 | 13

116.24 МБ




Вы не можете начинать темы
Вы не можете отвечать на сообщения
Вы не можете редактировать свои сообщения
Вы не можете удалять свои сообщения
Вы не можете добавлять вложения

Перейти:  
Для Мосгорсуда, Роскомнадзора и рекламодателей: mosgorsud-torrent[собачка]yandex.ru
 Вход
ppkBB3cker v.2 © 2008-2014 @ PPK
[ Time : 0.046s | 17 Queries | GZIP : Off ]

Торрент трекер RUTOR.IN, Не можете зайти на rutor.org? Какой новый адрес рутор? Какое зеркало рутор? Не работает rutor.org и зеркала? Тогда наш торрент специально для вас. Rutor.in неофициальное зеркало rutor. В случае если у Вас заблокирован rutor или вдруг Вы не можете на него зайти, то Вы без труда сможете скачать бесплатно и без рекламы последние новинки кино, игр, сериалов и прочего у нас, на Rutor.in. Не нужно использовать прокси, чтобы зайти на рутор, достаточно воспользоваться нашим ресурсом. Все новые фильмы, игры, сериалы, книги и музыка за 2013 и 2014 годы через торрент бесплатно. Скачивайте фильмы в хорошем качестве, игры для пк, xbox, playstation без регистрации. У нас вы найдете новые Зарубежные сериалы и Русские сериалы 2013, 2014, 2015 годов. Оставайтесь с нами, качайте любимые фильмы, игры, сериалы, книги и музыку.
cron