img image001 image001 image001 image001 image001 image001 image001 image001 image001 image001 image001 image001 image001 image001 image001

Planets Sun Sun Sun
Статистика раздачи
Автор: PriZraK | Размер: 23.53 ГБ | Добавлен: 14 янв 2017
Раздают: 12    Качают: 0
Скачать торрент
Скачать торрент
Описание торрента

СообщениеДобавлено: 14 янв 2017 

[hr][/hr][hr][/hr]
[center][img]http://i89.fastpic.ru/big/2017/0111/7c/04b634581c5149577e2fc1ca2b1ef57c.png[/img] [img]http://i89.fastpic.ru/big/2017/0111/6e/7180bda104d722e4fc173c1072c0316e.png[/img][/center] [hr][/hr]
[font=Georgia][center][color=darkred]История игрушек (Трилогия)[/color]
[color=blue]Toy Story (Trilogy)[/color][/center]
[hr][/hr]
[b]Страна[/b]: США
[b]Жанр[/b]: Мультфильм, Фэнтези, Комедия, Приключения, Семейный
[b]Перевод[/b]: Профессиональный дублированный (лицензия)
[hr][/hr]
[b]Доп. инфо:[/b]
Видеоряд во всех трёх частях русскоязычный.
Главы во всех частях проименованы (по-русски и по-английски).
Автозапуск 3Д реализован во всех трёх частях.
[hr][/hr]
[b]Качество[/b]: BDRip (by [b][i][color=darkblue]Ash61[/color][/i][/b])
[b]Контейнер[/b]: MKV
[color=blue][b]Формат 3D[/b][/color]: Half OverUnder / Вертикальная анаморфная стереопара
[b]Порядок ракурсов[/b]: левый ракурс первый
[hr][/hr]
[b][u]Видео:[/u][/b] AVC / [color=blue][i][b]1920х1080p[/b][/i][/color] / 23,976 fps
[url=http://sendfile.su/1298309][img]http://i053.radikal.ru/1302/74/6ee1ee2d271c.gif[/img][/url]
[hr][/hr][hr][/hr][hr][/hr][hr][/hr][hr][/hr]
[center][color=darkred]История игрушек[/color]
[color=blue]Toy Story[/color][/center]
[spoiler="Информация"]
[imgright]http://i89.fastpic.ru/big/2017/0111/51/91ba05f32825e6072e56b96839b8a151.png[/imgright][b]Год выпуска:[/b] 1995
[b]Продолжительность:[/b] 01:21:05
[b]Режиссер:[/b] Джон Лассетер / John Lasseter
[hr][/hr]
[center][u]озвучивали[/font] ([color=darkred]дублировали[/color]):[/u]
[url=https://www.kinopoisk.ru/name/9144/][img]http://i90.fastpic.ru/big/2017/0112/aa/6f7654ec9d85d02d0c45d9c3a297d9aa.jpg[/img][/url] [url=https://www.kinopoisk.ru/name/23955/][img]http://i90.fastpic.ru/big/2017/0112/f8/d75891ec005df42d2892a5f837d22df8.jpg[/img][/url] [url=https://www.kinopoisk.ru/name/23956/][img]http://i90.fastpic.ru/big/2017/0112/d5/a81e8bdb4e819d5ebe1cde4e404c95d5.jpg[/img][/url] [url=https://www.kinopoisk.ru/name/194/][img]http://i90.fastpic.ru/big/2017/0112/d4/6f4a91a51b7e4f5beab52550ccd760d4.jpg[/img][/url] [url=https://www.kinopoisk.ru/name/7890/][img]http://i90.fastpic.ru/big/2017/0112/b0/39b29b1be8318fe293b5545e14401eb0.jpg[/img][/url] [url=https://www.kinopoisk.ru/name/13821/][img]http://i90.fastpic.ru/big/2017/0112/03/33bef7d3e9eaade26312e36f693bdd03.jpg[/img][/url] [url=https://www.kinopoisk.ru/name/23957/][img]http://i90.fastpic.ru/big/2017/0112/3a/43bdb08b479d724069d598c57c3ba63a.jpg[/img][/url] [url=https://www.kinopoisk.ru/name/23958/][img]http://i90.fastpic.ru/big/2017/0112/2a/cfe97ffbc97e91f104e0c96095c9132a.jpg[/img][/url] [url=https://www.kinopoisk.ru/name/21221/][img]http://i90.fastpic.ru/big/2017/0112/91/2f914d1df624096ca1a953e813d35291.jpg[/img][/url] [url=https://www.kinopoisk.ru/name/11664/][img]http://i90.fastpic.ru/big/2017/0112/f9/67cac3272adcac5980e52f06e44d65f9.jpg[/img][/url] [url=https://www.kinopoisk.ru/name/14108/][img]http://i90.fastpic.ru/big/2017/0112/28/e4afa50e354d76debc95f18f158f3828.jpg[/img][/url]
Woody - [color=darkblue]Том Хэнкс[/color] ([color=darkred]Александр Баргман[/color])
Buzz Lightyear - [color=darkblue]Тим Аллен[/color] ([color=darkred]Станислав Концевич[/color])
Mr. Potato Head - [color=darkblue]Дон Риклз[/color] ([color=darkred]Артур Ваха[/color])
Slinky Dog - [color=darkblue]Джим Варни[/color] ([color=darkred]Вадим Никитин[/color])
Rex - [color=darkblue]Уоллес Шоун[/color] ([color=darkred]Валерий Захарьев[/color])
Hamm - [color=darkblue]Джон Ратценбергер[/color] ([color=darkred]Алексей Гурьев[/color])
Bo Peep - [color=darkblue]Энни Поттс[/color] ([color=darkred]Елена Ярема[/color])
Andy - [color=darkblue]Джон Моррис[/color] ([color=darkred]Иван Чабан[/color])
Sid - [color=darkblue]Эрик фон Деттен[/color] ([color=darkred]Алексей Решетников[/color])
Mrs. Davis - [color=darkblue]Лори Меткаф[/color] ([color=darkred]Белла Ко[/color])
Sergeant - [color=darkblue]Р. Ли Эрми[/color] ([color=darkred]Геннадий Смирнов[/color])[/center]
[hr][/hr][hr][/hr]
[b]Описание:[/b] [color=#006699]Каждый ребенок верит, что когда он оставляет свои игрушки одни, они начинают заниматься своими делами. Этот мультипликационный фильм позволяет убедиться им в своей правоте.
Основная идея фильма — каждая игрушка боится надоесть, стать забытой, замененной другой, так как весь смысл их существования — доставлять счастье своим хозяевам.[/color]
[hr][/hr][hr][/hr]
[center][color=indigo]Премьера: 19 ноября 1995
Релиз на Blu-Ray (Россия): 15 ноября 2011
Бюджет: $30 000 000
Кассовые сборы: $361 958 736[/color]
[url=http://www.imdb.com/title/tt0114709/][img]http://xrutor.org/parse/s.rutor.org/imdb/pic/0114709.gif[/img][/url] [url=http://www.kinopoisk.ru/film/482/][img]http://www.kinopoisk.ru/rating/482.gif[/img][/url]
[hr][/hr]
[b][u]Видео:[/u][/b] AVC / [color=blue][i][b]1920х1080p[/b][/i][/color] / 23,976 fps / 9592 Kbps
[b][u]Аудио:[/u][/b]
[b]#1 - [color=darkred][i]Русский[/i][/color][/b] / AC3 / 48 KHz / 5.1 ch / 640 Kbps ([i][b]Дубляж - BD 3D[/b][/i])
[b]#2 - [color=#996600][i]Украинский[/i][/color][/b] / AC3 / 48 KHz / 5.1 ch / 640 Kbps ([b][i]Дубляж - BD CEE[/i][/b])
[b]#3 - [color=darkblue][i]Английский[/i][/color][/b] / AC3 / 48 KHz / 5.1 ch / 640 Kbps ([b][i]Original - BD 3D[/i][/b])
[b][u]Субтитры[/u][/b] [i](SRT)[/i]:
[b][i]Вшитые (softsub):[/i][/b]
[b]#1[/b] - [i][color=darkred]Русские[/color][/i] Форсированные ([i]включены по умолчанию[/i])
[b]#2[/b] - [i][color=darkred]Русские[/color][/i] Полные
[b]#3[/b] - [i][color=darkred]Русские[/color][/i] Коментарии
[b]#4[/b] - [i][color=#996600]Украинские[/color][/i] Форсированные
[b]#5[/b] - [i][color=#996600]Украинские[/color][/i] Полные
[b]#6[/b] - [i][color=#996600]Украинские[/color][/i] Коментарии
[b]#7[/b] - [i][color=darkblue]English[/color][/i] Full
[b]#8[/b] - [i][color=darkblue]English[/color][/i] SDH
[b][i]Внешние (UTF-8):[/i][/b]
[b]#1[/b] - [i][color=darkred]Русские[/color][/i] Форсированные ([i]включены по умолчанию[/i])
[b]#2[/b] - [i][color=#996600]Украинские[/color][/i] Форсированные[/center][/spoiler][spoiler="Знаете ли вы, что..."]Когда Базз доказывает, что он умеет летать, при падении виден мячик из короткометражки «Люксо младший» (1989).
В мультфильме фигурирует заправка «Dinoco». В мультфильме «Тачки» (2006) Dinoco — одна из ведущих гоночных компаний.
Создатели фильма признались, что на создание сцены погони за фургоном их вдохновила сцена погони за поездом из мультфильма «Уоллес и Громит 2: Неправильные штаны» (1993).
Данный мультфильм стал по-настоящему революционным. Кто мог догадываться в далеком 1995 году, что со временем традиционная рисованная анимация уйдет на покой, а балом будут править трехмерные персонажи, целиком и полностью прорисованные на компьютере?
На обработку каждого кадра требовалось от 4 до 13 часов времени.
В других, неанглоязычных версиях мультфильма, рты персонажей двигаются согласно голосу и интонациям актера-дублера. Кроме этого, все надписи, появляющиеся на экране, так же были адаптированы под каждую из стран, где проходил прокат этого мультфильма.
Если внимательно присмотреться к видеоряду, можно сделать следующее наблюдение: периодически персонажи картины моргают, но никогда не делают этого одновременно.
Персонаж Энди получил свое имя в честь профессора Андриеса «Энди» Ван Дама. На его курсах по компьютерной науке и компьютерной графике обучались многие из создателей фильма.
Имя одного из главных персонажей мультфильма — космического рейнджера Базза Лайтера — совпадает с именем знаменитого американского астронавта Базза Алдрина.
В каждом фильме Pixar появляется номер A113, он соответствует номеру классной комнаты, в которой учились Джон Лассетер, Брэд Бёрд, Пит Доктер и Эндрю Стэнтон в школе CalArts. В фильме «История Игрушек» А113 это номер водительских прав на стекле минивэна мамы Энди.
Мультфильм вышел в прокат в необычном формате 1,78:1 (традиционный формат 1,85:1).
Именами главных персонажей мультфильма названы дистрибутивы ОС Debian GNU/Linux.
Когда Вуди рассказывает по микрофону о дне рождения Энди, за его спиной стоят книги с названиями из ранних короткометражек Pixar. Среди них: «Приключения Андрэ и пчелки Уэлли» (1984); «Звезда цирка» (1987); «Оловянная игрушка» (1988); «Безделушка» (1989).
Фургон, на котором отвозили игрушки Энди, назывался «EGGMAN»; так же назывался главный злодей из серии игр Sonic the Hedgehog.
В комнате Энди стоит глобус. Если присмотреться, то можно заметить (особенно когда глобус чуть не раздавил Базза), что на нём изображена карта не России, а СССР.
[*]В эпизоде, когда Молли едет на переднем сиденье автомобиля, в нем звучит та же музыка, что и из заставки мультсериала «Тимон и Пумба» (1995-1998).[/spoiler][spoiler="Ошибка в мультфильме"]Чтобы попасть в комнату Ханны, Вуди прячется в ёлочной гирлянде. Когда они вместе с Баззом выходят оттуда — гирлянды уже нет, а в следующем кадре она снова на прежнем месте.[/spoiler][spoiler="MediaInfo"]General
Unique ID : 177444694043169494502221847487087234236 (0x857E9ADF83518600A0126CC6CDFDCCBC)
Complete name : E:ToyStory[Trilogy](1995-2010)3D-halfOU(Ash61)ToyStory1(1995)3D-halfOU(Ash61)v2.mkv
Format : Matroska
Format version : Version 2
File size : 6.65 GiB
Duration : 1h 21mn
Overall bit rate : 11.7 Mbps
Movie name : История игрушек / Toy Story (1995) в 3Д
Encoded date : UTC 2016-12-27 10:34:34
Writing application : mkvmerge v5.8.0 ('No Sleep / Pillow') built on Sep 2 2012 15:37:04
Writing library : libebml v1.2.3 + libmatroska v1.3.0
Video
ID : 1
Format : AVC
Format/Info : Advanced Video Codec
Format profile : High@L4.1
Format settings, CABAC : Yes
Format settings, ReFrames : 4 frames
Codec ID : V_MPEG4/ISO/AVC
Duration : 1h 21mn
Bit rate : 9 592 Kbps
Width : 1 920 pixels
Height : 1 080 pixels
Display aspect ratio : 16:9
Frame rate mode : Constant
Frame rate : 23.976 fps
Color space : YUV
Chroma subsampling : 4:2:0
Bit depth : 8 bits
Scan type : Progressive
Bits/(Pixel*Frame) : 0.193
Stream size : 5.43 GiB (82%)
Title : BDRip by Ash61
Writing library : x264 core 146 r2538 121396c
Encoding settings : cabac=1 / ref=4 / deblock=1:-3:-3 / analyse=0x3:0x113 / me=umh / subme=10 / psy=1 / psy_rd=1.00:0.00 / mixed_ref=1 / me_range=32 / chroma_me=1 / trellis=2 / 8x8dct=1 / cqm=0 / deadzone=21,11 / fast_pskip=1 / chroma_qp_offset=-2 / threads=12 / lookahead_threads=3 / sliced_threads=0 / nr=0 / decimate=1 / interlaced=0 / bluray_compat=0 / constrained_intra=0 / bframes=12 / b_pyramid=2 / b_adapt=2 / b_bias=0 / direct=3 / weightb=1 / open_gop=0 / weightp=2 / keyint=250 / keyint_min=23 / scenecut=40 / intra_refresh=0 / rc_lookahead=60 / rc=crf / mbtree=1 / crf=14.7 / qcomp=0.70 / qpmin=0 / qpmax=69 / qpstep=4 / vbv_maxrate=40000 / vbv_bufsize=30000 / crf_max=0.0 / nal_hrd=none / filler=0 / frame-packing=4 / ip_ratio=1.40 / aq=1:0.70
Language : English
Default : Yes
Forced : No
Audio #1
ID : 2
Format : AC-3
Format/Info : Audio Coding 3
Mode extension : CM (complete main)
Format settings, Endianness : Big
Codec ID : A_AC3
Duration : 1h 21mn
Bit rate mode : Constant
Bit rate : 640 Kbps
Channel(s) : 6 channels
Channel positions : Front: L C R, Side: L R, LFE
Sampling rate : 48.0 KHz
Bit depth : 16 bits
Compression mode : Lossy
Stream size : 371 MiB (5%)
Title : Дубляж - BD 3D
Language : Russian
Default : Yes
Forced : No
Audio #2
ID : 3
Format : AC-3
Format/Info : Audio Coding 3
Mode extension : CM (complete main)
Format settings, Endianness : Big
Codec ID : A_AC3
Duration : 1h 21mn
Bit rate mode : Constant
Bit rate : 640 Kbps
Channel(s) : 6 channels
Channel positions : Front: L C R, Side: L R, LFE
Sampling rate : 48.0 KHz
Bit depth : 16 bits
Compression mode : Lossy
Stream size : 371 MiB (5%)
Title : Дубляж - BD CEE
Language : Ukrainian
Default : No
Forced : No
Audio #3
ID : 4
Format : AC-3
Format/Info : Audio Coding 3
Mode extension : CM (complete main)
Format settings, Endianness : Big
Codec ID : A_AC3
Duration : 1h 21mn
Bit rate mode : Constant
Bit rate : 640 Kbps
Channel(s) : 6 channels
Channel positions : Front: L C R, Side: L R, LFE
Sampling rate : 48.0 KHz
Bit depth : 16 bits
Compression mode : Lossy
Stream size : 371 MiB (5%)
Title : Original - BD 3D
Language : English
Default : No
Forced : No
Text #1
ID : 5
Format : UTF-8
Codec ID : S_TEXT/UTF8
Codec ID/Info : UTF-8 Plain Text
Title : Форсированные
Language : Russian
Default : Yes
Forced : No
Text #2
ID : 6
Format : UTF-8
Codec ID : S_TEXT/UTF8
Codec ID/Info : UTF-8 Plain Text
Title : Полные
Language : Russian
Default : No
Forced : No
Text #3
ID : 7
Format : UTF-8
Codec ID : S_TEXT/UTF8
Codec ID/Info : UTF-8 Plain Text
Title : Коментарии
Language : Russian
Default : No
Forced : No
Text #4
ID : 8
Format : UTF-8
Codec ID : S_TEXT/UTF8
Codec ID/Info : UTF-8 Plain Text
Title : Форсированные
Language : Ukrainian
Default : No
Forced : No
Text #5
ID : 9
Format : UTF-8
Codec ID : S_TEXT/UTF8
Codec ID/Info : UTF-8 Plain Text
Title : Полные
Language : Ukrainian
Default : No
Forced : No
Text #6
ID : 10
Format : UTF-8
Codec ID : S_TEXT/UTF8
Codec ID/Info : UTF-8 Plain Text
Title : Коментарии
Language : Ukrainian
Default : No
Forced : No
Text #7
ID : 11
Format : UTF-8
Codec ID : S_TEXT/UTF8
Codec ID/Info : UTF-8 Plain Text
Title : Full
Language : English
Default : No
Forced : No
Text #8
ID : 12
Format : UTF-8
Codec ID : S_TEXT/UTF8
Codec ID/Info : UTF-8 Plain Text
Title : SDH
Language : English
Default : No
Forced : No
Menu
00:00:00.000 : : 1. Шериф Вуди / Sheriff Woody
00:02:02.246 : : 2. Вступительные титры / Opening Credits
00:04:00.365 : : 3. На горизонте чисто / The Coast Is Clear
00:06:34.017 : : 4. Собрание / The Staff Meeting
00:09:19.267 : : 5. Разведотряд / Recon Plan Charlie
00:14:16.980 : : 6. Базз Лайтер, космический рейнджер / Buzz Lightyear, Space Ranger
00:20:10.250 : : 7. "Что-то странное" / Strange Things
00:22:17.210 : : 8. Вуди против Базза / Woody vs. Buzz
00:24:24.962 : : 9. Сид / Sid
00:26:01.226 : : 10. Кого выберет Энди? / Who Will Andy Pick?
00:29:28.932 : : 11. Базз уезжает / Buzz Hitches a Ride
00:30:09.348 : : 12. Потерян на заправке / Lost at the Gas Station
00:35:09.856 : : 13. "Планета пиццы" / Pizza Planet
00:39:25.403 : : 14. Дом Сида / Sid's House
00:42:59.534 : : 15. Опять у Энди / Back at Andy's
00:43:43.327 : : 16. Игра с Сидом / Playtime with Sid
00:46:25.699 : : 17. Реклама Базза Лайтера / The Buzz Lightyear Commercial
00:47:20.170 : : 18. "Я больше не полечу" / I Will Go Sailing No More
00:49:08.110 : : 19. Чай у Ханны / Hannah's Tea Party
00:51:08.523 : : 20. Из окна Сида в окно Энди / Sid's Window to Andy's Window
00:53:49.934 : : 21. "Большая" / The Big One
00:56:23.713 : : 22. Энди скучает по Вуди / Andy Misses Woody
00:57:14.764 : : 23. "Базз, мне без тебя не справиться" / Buzz, I Can't Do This Without You
01:01:41.072 : : 24. Вуди просит о помощи / Woody Asks for Help
01:02:50.099 : : 25. "Заводите лягушку" / Wind the Frog
01:04:49.092 : : 26. "Играй хорошо" / Play Nice!
01:07:58.657 : : 27. Погоня / The Chase
01:13:10.301 : : 28. Энергия ракеты / Rocket Power
01:15:40.077 : : 29. Рождество в новом доме Энди / Christmas in Andy's New House
01:17:08.372 : : 30. Финальные титры / End Credits[/spoiler][spoiler="Скриншоты"][url=http://fastpic.ru/view/91/2017/0111/485411ae387f19b67fa4e78fbeb3b1e8.png.html][img]http://i91.fastpic.ru/thumb/2017/0111/e8/485411ae387f19b67fa4e78fbeb3b1e8.jpeg[/img][/url] [url=http://fastpic.ru/view/91/2017/0111/_966f5965e182ef93f1c5025da857581e.png.html][img]http://i91.fastpic.ru/thumb/2017/0111/1e/_966f5965e182ef93f1c5025da857581e.jpeg[/img][/url] [url=http://fastpic.ru/view/91/2017/0111/_717a5d52ca354f38f47269958ac33a6f.png.html][img]http://i91.fastpic.ru/thumb/2017/0111/6f/_717a5d52ca354f38f47269958ac33a6f.jpeg[/img][/url] [url=http://fastpic.ru/view/91/2017/0111/a570461e5c8f3e9c71ae348b771db7b2.png.html][img]http://i91.fastpic.ru/thumb/2017/0111/b2/a570461e5c8f3e9c71ae348b771db7b2.jpeg[/img][/url] [url=http://fastpic.ru/view/91/2017/0111/ad9cfbb2334ca34a56e6ff75de753ad6.png.html][img]http://i91.fastpic.ru/thumb/2017/0111/d6/ad9cfbb2334ca34a56e6ff75de753ad6.jpeg[/img][/url] [url=http://fastpic.ru/view/91/2017/0111/_f5338765936d98c2bca4a86dc910ddb5.png.html][img]http://i91.fastpic.ru/thumb/2017/0111/b5/_f5338765936d98c2bca4a86dc910ddb5.jpeg[/img][/url] [url=http://fastpic.ru/view/91/2017/0111/_42fb646bfc1b1129532feb018b0cae01.png.html][img]http://i91.fastpic.ru/thumb/2017/0111/01/_42fb646bfc1b1129532feb018b0cae01.jpeg[/img][/url][/spoiler][spoiler="Для оценки 3Д - Анимированные скрины"][url=http://fastpic.ru/][img]http://i89.fastpic.ru/big/2017/0111/ea/306a2c41c79f6baf55ee0c258e0e4cea.gif[/img][/url]
[url=http://fastpic.ru/][img]http://i89.fastpic.ru/big/2017/0111/8d/435f85450dc8b00b7bf124b4ccc52e8d.gif[/img][/url]
[url=http://fastpic.ru/][img]http://i89.fastpic.ru/big/2017/0111/5e/02fa0d8dd3357a7ee7aacadb9b30ec5e.gif[/img][/url]
[url=http://fastpic.ru/][img]http://i89.fastpic.ru/big/2017/0111/f4/8938b5b45799b2aede0b874a6c2843f4.gif[/img][/url]
[url=http://fastpic.ru/][img]http://i89.fastpic.ru/big/2017/0111/8f/9f715234e7a9b79b08ef970289a2968f.gif[/img][/url]
[url=http://fastpic.ru/][img]http://i89.fastpic.ru/big/2017/0111/49/6291a4cbf9537983db469292028f9449.gif[/img][/url][/spoiler][hr][/hr][hr][/hr]
[center][color=darkred]История игрушек 2[/color]
[color=blue]Toy Story 2[/color]
[spoiler="Информация"]
[imgright]http://i89.fastpic.ru/big/2017/0111/c4/6ec81737b8e82cf3ce890dc6450006c4.png[/imgright][b]Год выпуска:[/b] 1999
[b]Продолжительность:[/b] 01:32:24
[b]Режиссер:[/b] Джон Лассетер, Эш Браннон, Ли Анкрич / John Lasseter, Ash Brannon, Lee Unkrich
[hr][/hr]
[u]озвучивали ([color=darkred]дублировали[/color]):[/u]
[url=https://www.kinopoisk.ru/name/9144/][img]http://i90.fastpic.ru/big/2017/0112/d3/8ea48f00ed6e9a73338684e5aa3388d3.jpg[/img][/url] [url=https://www.kinopoisk.ru/name/23955/][img]http://i90.fastpic.ru/big/2017/0112/99/f916ce691abe45cb157dbceb119bbc99.jpg[/img][/url] [url=https://www.kinopoisk.ru/name/21823/][img]http://i90.fastpic.ru/big/2017/0112/7d/b3b2b2fdfc5be5f96b1bee478e11a47d.jpg[/img][/url] [url=https://www.kinopoisk.ru/name/720/][img]http://i90.fastpic.ru/big/2017/0112/59/bfddd64a7155da20afd49ea1233a5959.jpg[/img][/url] [url=https://www.kinopoisk.ru/name/23956/][img]http://i90.fastpic.ru/big/2017/0112/23/d7e77cec4fad610be3a6e4a04e0c2f23.jpg[/img][/url] [url=https://www.kinopoisk.ru/name/194/][img]http://i90.fastpic.ru/big/2017/0112/96/21fe17aae88d6f17265deda5fc4bbf96.jpg[/img][/url] [url=https://www.kinopoisk.ru/name/7890/][img]http://i90.fastpic.ru/big/2017/0112/17/351b1ba8794e1a147de93dbb00635b17.jpg[/img][/url] [url=https://www.kinopoisk.ru/name/13821/][img]http://i90.fastpic.ru/big/2017/0112/cd/4db70026ae12b15fdbccdbfe7e831ecd.jpg[/img][/url] [url=https://www.kinopoisk.ru/name/23957/][img]http://i90.fastpic.ru/big/2017/0112/3c/0ec6bc0ce21da9231e54ae2b7f9c453c.jpg[/img][/url] [url=https://www.kinopoisk.ru/name/21202/][img]http://i90.fastpic.ru/big/2017/0112/3b/06d8d2211856d12422db7c1f7255f93b.jpg[/img][/url] [url=https://www.kinopoisk.ru/name/23958/][img]http://i90.fastpic.ru/big/2017/0112/8a/472ca1cec7ec21fe886bd6f2ef17d88a.jpg[/img][/url] [url=https://www.kinopoisk.ru/name/11664/][img]http://i90.fastpic.ru/big/2017/0112/7f/a9db8e04045a0f4d3c67ba7451ef787f.jpg[/img][/url] [url=https://www.kinopoisk.ru/name/13263/][img]http://i90.fastpic.ru/big/2017/0112/31/1cdef4a3a4c4a0b9bcd5119c58340931.jpg[/img][/url] [url=https://www.kinopoisk.ru/name/14108/][img]http://i90.fastpic.ru/big/2017/0112/8c/d772bbbed8e25db53f3564ef82eb6f8c.jpg[/img][/url]
Woody - [color=darkblue]Том Хэнкс[/color] ([color=darkred]Александр Баргман[/color])
Buzz Lightyear - [color=darkblue]Тим Аллен[/color] ([color=darkred]Станислав Концевич[/color])
Jessie the Yodeling Cowgirl - [color=darkblue]Джоан Кьюсак[/color] ([color=darkred]Александра Фатхи; вокал - Сауле Искакова[/color])
Stinky Pete the Prospector - [color=darkblue]Келси Грэммер[/color] ([color=darkred]Игорь Ефимов[/color])
Mr. Potato Head - [color=darkblue]Дон Риклз[/color] ([color=darkred]Артур Ваха[/color])
Slinky Dog - [color=darkblue]Джим Варни[/color] ([color=darkred]Вадим Никитин[/color])
Rex the Green Dinosaur - [color=darkblue]Уоллес Шоун[/color] ([color=darkred]Валерий Захарьев[/color])
Hamm the Piggy Bank - [color=darkblue]Джон Ратценбергер[/color] ([color=darkred]Алексей Гурьев[/color])
Bo Peep - [color=darkblue]Энни Поттс[/color] ([color=darkred]Елена Ярема[/color])
Al the Toy Collector - [color=darkblue]Уэйн Найт[/color] ([color=darkred]Евгений Умаров[/color])
Andy - [color=darkblue]Джон Моррис[/color] ([color=darkred]Никита Остриков[/color])
Andy's Mom - [color=darkblue]Лори Меткаф[/color] ([color=darkred]Белла Ко[/color])
Mrs. Potato Head - [color=darkblue]Эстель Харрис[/color] ([color=darkred]Нина Потаповская[/color])
Army Sarge - [color=darkblue]Р. Ли Эрми[/color] ([color=darkred]Геннадий Смирнов[/color])[/center]
[hr][/hr][hr][/hr]
[b]Описание:[/b] [color=#006699]Ковбой Вуди и другие игрушки мальчика по имени Энди продолжают жить, радуясь каждому дню. Но неожиданно все меняется, когда Вуди похищает коварный коллекционер. Оказывается, что Вуди — очень ценная игрушка из коллекции, за которую японский музей игрушек готов заплатить огромную сумму. В доме коллекционера он находит своих родственников. В это время игрушки во главе с Баззом Лайтером отправляются спасать Вуди.
Вуди узнает о своем знаменитом прошлом, Базз и другие игрушки проходят опасный и тернистый путь. Перед Вуди встает непростой вопрос — каково же его предназначение? Блистать в витрине музея или же вернуться к любимому хозяину?[/color]
[hr][/hr][hr][/hr]
[center][color=indigo]Премьера: 13 ноября 1999
Релиз на Blu-Ray (Россия): 15 ноября 2011
Бюджет: $125 000 000
Кассовые сборы: $485 015 179[/color]
[url=http://www.imdb.com/title/tt0120363/][img]http://xrutor.org/parse/s.rutor.org/imdb/pic/0120363.gif[/img][/url] [url=http://www.kinopoisk.ru/film/405/][img]http://www.kinopoisk.ru/rating/405.gif[/img][/url]
[hr][/hr]
[b][u]Видео:[/u][/b] AVC / [color=blue][i][b]1920х1080p[/b][/i][/color] / 23,976 fps / 10.3 Mbps
[b][u]Аудио:[/u][/b]
[b]#1 - [color=darkred][i]Русский[/i][/color][/b] / AC3 / 48 KHz / 5.1 ch / 640 Kbps ([i][b]Дубляж - BD 3D[/b][/i])
[b]#2 - [color=#996600][i]Украинский[/i][/color][/b] / AC3 / 48 KHz / 5.1 ch / 640 Kbps ([b][i]Дубляж - BD CEE[/i][/b])
[b]#3 - [color=darkblue][i]Английский[/i][/color][/b] / AC3 / 48 KHz / 5.1 ch / 640 Kbps ([b][i]Original - BD 3D[/i][/b])
[b][u]Субтитры[/u][/b] [i](внешние SRT UTF-8)[/i]:
[b]#1[/b] - [i][color=darkred]Русские[/color][/i] Полные
[b]#2[/b] - [i][color=darkred]Русские[/color][/i] Коментарии
[b]#3[/b] - [i][color=#996600]Украинские[/color][/i] Форсированные
[b]#4[/b] - [i][color=#996600]Украинские[/color][/i] Полные
[b]#5[/b] - [i][color=#996600]Украинские[/color][/i] Коментарии
[b]#6[/b] - [i][color=darkblue]English[/color][/i] Full
[b]#7[/b] - [i][color=darkblue]English[/color][/i] SDH
[/center][/spoiler][spoiler="Знаете ли вы, что..."]«Популярнейший» сериал «Загон Вуди» пародирует реальный и весьма популярный американский телесериал «Кукольный театр» (1947-1960).
В каждом фильме Pixar появляется номер A113, он соответствует номеру классной комнаты, в которой учились Джон Лассетер, Брэд Бёрд, Пит Доктер и Эндрю Стэнтон в школе CalArts. В фильме «История игрушек 2» (1999) номер А113 можно встретить несколько раз: это номер водительских прав мамы Энди, а так же номер рейса компании LassetAir, название которой отсылает зрителей к имени режиссера Джона Лассетера.
Сцена, в которой Рекс гонится за автомобилем в магазине игрушек, — это ссылка на фильм «Парк Юрского периода» (1993).
На 24-й минуте фильма, когда Свинья-Копилка быстро переключает каналы телевизора, можно заметить кадры короткометражных мультфильмов студии Pixar, среди которых «Люксо младший» (1986), «Звезда цирка» (1987), «Оловянная игрушка» (1988), «Безделушка» (1989).
Игрушечный мастер Джерри, который чинил Вуди, это герой короткометражки «Игра Джери» (1997) от студии Pixar.
Среди игрушек Энди одна из фигурок стилизована под Кайла Брофловски, одного из главных героев мультсериала «Южный Парк» (1997).
В сцене, где игрушки планируют спасение Вуди, Экран прокладывает маршрут и выдает адрес «Амбара Эла»: 1001, Вест-Каттинг Бульвар. Это адрес, по которому расположена студия Pixar Animation в Ричмонде, штат Калифорния.
Внешность мастера — реставратора коллекционных игрушек была скопирована с легендарного британского гримера Стюарта Фриборна.
Работа над каждым отдельным кадром в сценах с багажом заняла у аниматоров более 70 часов.
[*]В титрах показан эпизод «съёмок», в котором Базз должен вести свой отряд сквозь кусты на лужайке. На листьях перед камерой сидят насекомые, крохотные персонажи мультфильма компании Pixar «Приключения Флика»(1998) и радуются тому, что им, наконец, удалось убедить мультипликаторов снять «Приключения Флика-2».[/spoiler][spoiler="MediaInfo"]General
Unique ID : 207144999928226654970218548888250985765 (0x9BD6AD027C7765F0BB4DAC8631E9AD25)
Complete name : E:ToyStory[Trilogy](1995-2010)3D-halfOU(Ash61)ToyStory2(1999)3D-halfOU(Ash61)v2.mkv
Format : Matroska
Format version : Version 2
File size : 8.02 GiB
Duration : 1h 32mn
Overall bit rate : 12.4 Mbps
Movie name : История игрушек 2 / Toy Story 2 (1999) в 3Д
Encoded date : UTC 2016-12-24 15:55:30
Writing application : mkvmerge v5.8.0 ('No Sleep / Pillow') built on Sep 2 2012 15:37:04
Writing library : libebml v1.2.3 + libmatroska v1.3.0
Video
ID : 1
Format : AVC
Format/Info : Advanced Video Codec
Format profile : High@L4.1
Format settings, CABAC : Yes
Format settings, ReFrames : 4 frames
Codec ID : V_MPEG4/ISO/AVC
Duration : 1h 32mn
Bit rate : 10.3 Mbps
Width : 1 920 pixels
Height : 1 080 pixels
Display aspect ratio : 16:9
Frame rate mode : Constant
Frame rate : 23.976 fps
Color space : YUV
Chroma subsampling : 4:2:0
Bit depth : 8 bits
Scan type : Progressive
Bits/(Pixel*Frame) : 0.206
Stream size : 6.62 GiB (83%)
Title : BDRip by Ash61
Writing library : x264 core 146 r2538 121396c
Encoding settings : cabac=1 / ref=4 / deblock=1:-3:-3 / analyse=0x3:0x113 / me=umh / subme=10 / psy=1 / psy_rd=1.00:0.00 / mixed_ref=1 / me_range=32 / chroma_me=1 / trellis=2 / 8x8dct=1 / cqm=0 / deadzone=21,11 / fast_pskip=1 / chroma_qp_offset=-2 / threads=12 / lookahead_threads=3 / sliced_threads=0 / nr=0 / decimate=1 / interlaced=0 / bluray_compat=0 / constrained_intra=0 / bframes=10 / b_pyramid=2 / b_adapt=2 / b_bias=0 / direct=3 / weightb=1 / open_gop=0 / weightp=2 / keyint=250 / keyint_min=23 / scenecut=40 / intra_refresh=0 / rc_lookahead=60 / rc=crf / mbtree=1 / crf=14.8 / qcomp=0.70 / qpmin=0 / qpmax=69 / qpstep=4 / vbv_maxrate=40000 / vbv_bufsize=30000 / crf_max=0.0 / nal_hrd=none / filler=0 / frame-packing=4 / ip_ratio=1.40 / aq=1:0.70
Language : English
Default : Yes
Forced : No
Audio #1
ID : 2
Format : AC-3
Format/Info : Audio Coding 3
Mode extension : CM (complete main)
Format settings, Endianness : Big
Codec ID : A_AC3
Duration : 1h 32mn
Bit rate mode : Constant
Bit rate : 640 Kbps
Channel(s) : 6 channels
Channel positions : Front: L C R, Side: L R, LFE
Sampling rate : 48.0 KHz
Bit depth : 16 bits
Compression mode : Lossy
Stream size : 423 MiB (5%)
Title : Дубляж - BD 3D
Language : Russian
Default : Yes
Forced : No
Audio #2
ID : 3
Format : AC-3
Format/Info : Audio Coding 3
Mode extension : CM (complete main)
Format settings, Endianness : Big
Codec ID : A_AC3
Duration : 1h 32mn
Bit rate mode : Constant
Bit rate : 640 Kbps
Channel(s) : 6 channels
Channel positions : Front: L C R, Side: L R, LFE
Sampling rate : 48.0 KHz
Bit depth : 16 bits
Compression mode : Lossy
Stream size : 423 MiB (5%)
Title : Дубляж - BD CEE
Language : Ukrainian
Default : No
Forced : No
Audio #3
ID : 4
Format : AC-3
Format/Info : Audio Coding 3
Mode extension : CM (complete main)
Format settings, Endianness : Big
Codec ID : A_AC3
Duration : 1h 32mn
Bit rate mode : Constant
Bit rate : 640 Kbps
Channel(s) : 6 channels
Channel positions : Front: L C R, Side: L R, LFE
Sampling rate : 48.0 KHz
Bit depth : 16 bits
Compression mode : Lossy
Stream size : 423 MiB (5%)
Title : Original - BD 3D
Language : English
Default : No
Forced : No
Menu
00:00:00.000 : : 1. Начало / Opening Titles
00:01:23.582 : : 2. Миссия Базза / Buzz's Mission
00:04:48.286 : : 3. Потерянная шляпа Вуди / Woody's Lost Hat
00:07:35.788 : : 4. Это Бастер! / It's Buster!
00:10:40.931 : : 5. Кошмар / The Nightmare
00:11:54.797 : : 6. Хрипун / Wheezy
00:12:47.099 : : 7. Распродажа / Yard Sale
00:15:29.927 : : 8. Похищен! / Kidnapped!
00:18:15.844 : : 9. Кто похитил Вуди? / Who Stole Woody?
00:20:17.590 : : 10. Тёплая компания из "Ранчо" / The Roundup Gang
00:24:14.035 : : 11. Операция "Спасение Вуди" / Operation Rescue Woody
00:25:54.385 : : 12. "Ранчо Вуди" / "Woody's Roundup"
00:30:32.121 : : 13. Вуди теряет руку / Woody Loses His Arm
00:31:48.448 : : 14. Речь Базза / Buzz's Speech
00:32:51.469 : : 15. Возвращение руки / Getting the Arm
00:36:44.994 : : 16. Переход через дорогу / Crossing the Road
00:39:09.137 : : 17. Реставратор / The Cleaner
00:39:53.056 : : 18. Амбар Игрушек Эла / Al's Toy Barn
00:41:06.338 : : 19. Реставрация Вуди / Woody's Restoration
00:42:26.210 : : 20. Переключатель Базза / Buzz Switch
00:44:41.344 : : 21. Отдел Барби / The Barbie Aisle
00:46:58.565 : : 22. История Джесси / Jessie's Story ("When She Loved Me")
00:53:23.949 : : 23. Игрушки находят Эла / The Toys Find Al
00:56:19.918 : : 24. В шахту! / Into the Vents
01:01:10.041 : : 25. Шериф Вуди / Sheriff Woody
01:02:14.271 : : 26. Спасём! / To the Rescue!
01:04:23.900 : : 27. Вуди остаётся / Woody Stays
01:08:00.409 : : 28. Вонючка Пит / Stinky Pete
01:09:52.186 : : 29. Битва с Зургом / Zurg Battle
01:12:27.466 : : 30. В аэропорт / To the Airport
01:14:58.493 : : 31. Вуди против Старателя / Woody vs. Prospector
01:17:28.310 : : 32. Спасение Джесси / Saving Jessie
01:19:46.280 : : 33. Взлёт / Takeoff!
01:21:35.806 : : 34. Добро пожаловать домой / Welcome Home
01:25:48.975 : : 35. Финальные титры / End Credits[/spoiler][spoiler="Скриншоты"][url=http://fastpic.ru/view/90/2017/0111/1d29f8457a28248f7da6942694c6fc8a.png.html][img]http://i90.fastpic.ru/thumb/2017/0111/8a/1d29f8457a28248f7da6942694c6fc8a.jpeg[/img][/url] [url=http://fastpic.ru/view/90/2017/0111/c57c714343faa5c028ff8290c24e9cd0.png.html][img]http://i90.fastpic.ru/thumb/2017/0111/d0/c57c714343faa5c028ff8290c24e9cd0.jpeg[/img][/url] [url=http://fastpic.ru/view/90/2017/0111/_9fc7c2d52191e322b0a23e544727420a.png.html][img]http://i90.fastpic.ru/thumb/2017/0111/0a/_9fc7c2d52191e322b0a23e544727420a.jpeg[/img][/url] [url=http://fastpic.ru/view/90/2017/0111/54d1741128dea7a643471dcc3704b6ae.png.html][img]http://i90.fastpic.ru/thumb/2017/0111/ae/54d1741128dea7a643471dcc3704b6ae.jpeg[/img][/url] [url=http://fastpic.ru/view/90/2017/0111/5f2cb672272b9554bffecd6ae7643e53.png.html][img]http://i90.fastpic.ru/thumb/2017/0111/53/5f2cb672272b9554bffecd6ae7643e53.jpeg[/img][/url] [url=http://fastpic.ru/view/90/2017/0111/_e5cbd31f354b962d57da625d5379e8c1.png.html][img]http://i90.fastpic.ru/thumb/2017/0111/c1/_e5cbd31f354b962d57da625d5379e8c1.jpeg[/img][/url] [url=http://fastpic.ru/view/90/2017/0111/512ea3bf7c45fd899cd6ff20ce560885.png.html][img]http://i90.fastpic.ru/thumb/2017/0111/85/512ea3bf7c45fd899cd6ff20ce560885.jpeg[/img][/url][/spoiler][spoiler="Для оценки 3Д - Анимированные скрины"][url=http://fastpic.ru/][img]http://i89.fastpic.ru/big/2017/0111/ca/3fc4f0ab5df74eba1fbeb907824293ca.gif[/img][/url]
[url=http://fastpic.ru/][img]http://i89.fastpic.ru/big/2017/0111/cd/d5be7a555eb32efe56d3812485eabacd.gif[/img][/url]
[url=http://fastpic.ru/][img]http://i89.fastpic.ru/big/2017/0111/12/dbee6364d9b309d36d8c5ff6a4fe0912.gif[/img][/url]
[url=http://fastpic.ru/][img]http://i89.fastpic.ru/big/2017/0111/6b/32cdc04e5a0b5bc3524ab169e2e36a6b.gif[/img][/url]
[url=http://fastpic.ru/][img]http://i89.fastpic.ru/big/2017/0111/60/d7683c134b9d94a9953e786025dd9160.gif[/img][/url]
[url=http://fastpic.ru/][img]http://i89.fastpic.ru/big/2017/0111/29/847c191294209435bc913c2976170329.gif[/img][/url][/spoiler][hr][/hr][hr][/hr]
[center][color=darkred]История игрушек: Большой побег[/color]
[color=blue]Toy Story 3[/color]
[spoiler="Информация"]
[imgright]http://i89.fastpic.ru/big/2017/0111/8f/e59f9c14f4d3483af2d49545efeabb8f.png[/imgright][b]Год выпуска:[/b] 2010
[b]Продолжительность:[/b] 01:43:00
[b]Режиссер:[/b] Ли Анкрич / Lee Unkrich
[hr][/hr]
[u]исполняли ([color=darkred]дублировали[/color]):[/u]
[url=https://www.kinopoisk.ru/name/9144/][img]http://i90.fastpic.ru/big/2017/0112/66/c1a7111c06cc2caedc6b676f7401b766.jpg[/img][/url] [url=https://www.kinopoisk.ru/name/23955/][img]http://i90.fastpic.ru/big/2017/0112/42/bd5130bf6e73698bc84f5e39d84c4342.jpg[/img][/url] [url=https://www.kinopoisk.ru/name/21823/][img]http://i90.fastpic.ru/big/2017/0112/7e/316beee3165c6f05b7c31237950f187e.jpg[/img][/url] [url=https://www.kinopoisk.ru/name/23802/][img]http://i90.fastpic.ru/big/2017/0112/f8/9670f59e447cbd1a922b11e06b21caf8.jpg[/img][/url] [url=https://www.kinopoisk.ru/name/23956/][img]http://i90.fastpic.ru/big/2017/0112/6a/4d7bb77eefee16cc1d693156fa60406a.jpg[/img][/url] [url=https://www.kinopoisk.ru/name/22773/][img]http://i90.fastpic.ru/big/2017/0112/35/ebc432371bf5199e96d04639bbc11335.jpg[/img][/url] [url=https://www.kinopoisk.ru/name/7890/][img]http://i90.fastpic.ru/big/2017/0112/79/c66f77b699715e76cb1687d27e1a8679.jpg[/img][/url] [url=https://www.kinopoisk.ru/name/13821/][img]http://i90.fastpic.ru/big/2017/0112/99/41518f5f7ddc04e88f39ab0a59e30d99.jpg[/img][/url] [url=https://www.kinopoisk.ru/name/13263/][img]http://i90.fastpic.ru/big/2017/0112/26/5b801edcf7fa91699082d6a92b1eb326.jpg[/img][/url] [url=https://www.kinopoisk.ru/name/23958/][img]http://i90.fastpic.ru/big/2017/0112/4b/64a6cdb5c67767ffe59a4fc06101ec4b.jpg[/img][/url] [url=https://www.kinopoisk.ru/name/23959/][img]http://i90.fastpic.ru/big/2017/0112/c6/aaa7f4acaeb212fd863a4dfd929113c6.jpg[/img][/url] [url=https://www.kinopoisk.ru/name/2106256/][img]http://i90.fastpic.ru/big/2017/0112/86/eb05dff4e0addb9da9e8cb12a7707186.jpg[/img][/url] [url=https://www.kinopoisk.ru/name/11664/][img]http://i90.fastpic.ru/big/2017/0112/fe/22dc5903708ea6f7b414da5bc1166bfe.jpg[/img][/url] [url=https://www.kinopoisk.ru/name/7641/][img]http://i90.fastpic.ru/big/2017/0112/f7/03b33ad03e53a6e09b1c592b2435a4f7.jpg[/img][/url]
Woody - [color=darkblue]Том Хэнкс[/color] ([color=darkred]Александр Баргман[/color])
Buzz Lightyear - [color=darkblue]Тим Аллен[/color] ([color=darkred]Станислав Концевич[/color])
Jessie - [color=darkblue]Джоан Кьюсак[/color] ([color=darkred]Юлия Рудина[/color])
Lotso - [color=darkblue]Нед Битти[/color] ([color=darkred]Сергей Паршин[/color])
Mr. Potato Head - [color=darkblue]Дон Риклз[/color] ([color=darkred]Артур Ваха[/color])
Ken - [color=darkblue][u][/color] ([color=darkred]Николай Басков[/u][/color])
Rex - [color=darkblue]Уоллес Шоун[/color] ([color=darkred]Валерий Захарьев[/color])
Hamm - [color=darkblue]Джон Ратценбергер[/color] ([color=darkred]Алексей Гурьев[/color])
Mrs. Potato Head - [color=darkblue]Эстель Харрис[/color] ([color=darkred]Лидия Мельникова[/color])
Andy - [color=darkblue]Джон Моррис[/color] ([color=darkred]Антон Горчаков[/color])
Barbie - [color=darkblue]Джоди Бенсон[/color] ([color=darkred]Оксана Фёдорова[/color])
Bonnie - [color=darkblue]Эмили Хан[/color] ([color=darkred]Варвара Доронина[/color])
Andy's Mom - [color=darkblue]Лори Меткаф[/color] ([color=darkred]Светлана Кузнецова[/color])
Slinky Dog - [color=darkblue]Блейк Кларк[/color] ([color=darkred]Борис Улитин[/color])[/center]
[hr][/hr][hr][/hr]
[b]Описание:[/b] [color=#006699]Энди почти 18 лет, ему остаётся 3 дня до отправки в колледж, в то время как его игрушки, в том числе Вуди и Базз Лайтер, гадают о своём будущем.
Куда забросит их судьба? На чердак, на свалку или, может быть, в детский сад «Солнышко»?
События развиваются в самом неожиданном направлении, и приключения полюбившихся героев продолжаются![/color]
[hr][/hr][hr][/hr]
[center][color=indigo]Премьера: 12 июня 2010 (17 июня 2010)
Релиз на Blu-Ray (DVD) (Россия): 23 ноября 2010
Бюджет: $200 000 000
Кассовые сборы: [size=14]$1 063 161 943[/size][/color]
[url=http://www.imdb.com/title/tt0435761/][img]http://xrutor.org/parse/s.rutor.org/imdb/pic/0435761.gif[/img][/url] [url=http://www.kinopoisk.ru/film/258328/][img]http://www.kinopoisk.ru/rating/258328.gif[/img][/url]
[hr][/hr]
[b][u]Видео:[/u][/b] AVC / [color=blue][i][b]1920х1080p[/b][/i][/color] / 23,976 fps / 10.1 Mbps
[b][u]Аудио:[/u][/b]
[b]#1 - [color=darkred][i]Русский[/i][/color][/b] / AC3 / 48 KHz / 5.1 ch / 640 Kbps ([i][b]Дубляж - BD 3D[/b][/i])
[b]#2 - [color=#996600][i]Украинский[/i][/color][/b] / AC3 / 48 KHz / 5.1 ch / 640 Kbps ([b][i]Дубляж - BD CEE[/i][/b])
[b]#3 - [color=darkblue][i]Английский[/i][/color][/b] / AC3 / 48 KHz / 5.1 ch / 640 Kbps ([b][i]Original - BD 3D[/i][/b])
[b][u]Субтитры[/u][/b] [i](SRT)[/i]:
[b][i]Вшитые (softsub):[/i][/b]
[b]#1[/b] - [i][color=darkred]Русские[/color][/i] Форсированные ([i]включены по умолчанию[/i])
[b]#2[/b] - [i][color=darkred]Русские[/color][/i] Полные
[b]#3[/b] - [i][color=#996600]Украинские[/color][/i] Форсированные
[b]#4[/b] - [i][color=#996600]Украинские[/color][/i] Полные
[b]#5[/b] - [i][color=#996600]Украинские[/color][/i] Коментарии
[b]#6[/b] - [i][color=darkblue]English[/color][/i] Forced
[b]#7[/b] - [i][color=darkblue]English[/color][/i] Full
[b]#8[/b] - [i][color=darkblue]English[/color][/i] SDH
[b][i]Внешние (UTF-8):[/i][/b]
[b]#1[/b] - [i][color=darkred]Русские[/color][/i] Форсированные ([i]включены по умолчанию[/i])
[b]#2[/b] - [i][color=#996600]Украинские[/color][/i] Форсированные[/center][/spoiler][spoiler="Знаете ли вы, что..."]Батарейки Базза произведены корпорацией «BnL» из фильма «ВАЛЛ·И» (2008).
В испаноговорящих странах эпизоды, где Базз говорит по-испански, были продублированы, но не на другой язык, а на всё тот же испанский, но с соответствующим звучанием. Например, в дубляже Латинской Америки Базз в нормальном состоянии говорит на испанском с латинским наречием, а в вышеупомянутых эпизодах переходит на стандартный испанский с кастильским акцентом. Таким образом даже в испанских версиях оригинальная шутка этих эпизодов сохранена.
Первый анимационный фильм Pixar, выпущенный и под формат IMAX.
В мультфильме 302 персонажа.
Во время ранних стадий разработки съёмочная группа хотела использовать оригинальные 3-D модели персонажей, которые использовались в предыдущих частях. Однако, файлы с этим моделями оказались несовместимы с новым программным обеспечением и в итоге модели персонажей были воссозданы с нуля.
Мусорщик в наушниках, который появляется в сцене, когда Вуди кажется, что его друзья в мусорном мешке, это Сид Филлипс — главный антагонист первой «Истории Игрушек». Он одет в ту же чёрную футболку с черепом и его невнятное пение под Хеви-метал исполнено всё тем же Эриком Фон Деттеном, который озвучивал его в первом фильме.
В каждом фильме Pixar появляется номер A113, он соответствует номеру классной комнаты, в которой учились Джон Лассетер, Бред Берд, Пит Доктер и Эндрю Стэнтон в школе CalArts. Несмотря на то, что прошло много лет, мама Энди не сменила права, которые по-прежнему на стекле ее машины в фильме «История Игрушек: Большой Побег» (2010).
По традиции, в каждом мультфильме студии Пиксар мельком появляется герой следующего мультфильма. В комнате Энди на стене при ближайшем рассмотрении можно заметить постер с Фином МакМислом, который стал новым персонажем «Тачек 2» (2011).
Когда дети вбегают в комнату, на одном из мальчиков можно заметить (при замедленном просмотре) эмблему с номером 95 и нарисованную молнию. Это намек на мультфильм «Тачки» (2006), где у Молнии МакКуин такая же эмблема.
В трилогии «История игрушек» в каждом предыдущем мультфильме ненадолго появляется персонаж, который в последующем будет одним из ключевых. Это короткая реклама «Амбара игрушек Эла» («Al’s Toys Barn») в первом фильме, во втором фильме Эл — ключевой персонаж. Это появление кукол Барби во второй части, в третьей части Барби — один из ключевых персонажей.
Пчёлка на рюкзаке Бонни — это Уэлли из первого мультфильма Pixar.
Округлая, серая с белым животом, и странными ушами игрушка в доме у Бонни — Тоторо, персонаж мультфильма «Мой сосед Тоторо» (1988). Также как и в оригинальном мультфильме, игрушка не говорит, а выражает эмоции только мимикой лица, в особенности своей «фирменной» треугольной улыбкой.
Обезьяну-охранника можно заметить в сцене, где мама Энди заносит игрушки в «Солнышко», в руках у Бонни.
[spoiler="Осторожно, следующие факты содержат спойлеры!"]В одном из эпизодов персонаж Мега-Пупс сбрасывает медведя Лотсо в мусорный бак — это отсылка к фильму «Звездные войны: Эпизод 6 — Возвращение Джедая» (1983), где Дарт Вейдер так же сбрасывает своего учителя в пропасть.
[*]В первом мультфильме, когда Энди играет игрушками в начале, он произносит фразы: «Это пес с силовым полем, а это динозавр, он ест псов с силовым полем.» Данный сценарий был использован к вступительному мультику в третьей части.[/spoiler][/spoiler][spoiler="Ошибка в мультфильме"]Когда клоун в доме Бонни рассказывает Вуди о Лотсо, он сказал, что «коробку с Лотсо распаковали у него на глазах», хотя было видно, что он сидел к нему спиной.[/spoiler][spoiler="MediaInfo"]General
Unique ID : 222747102558491582616884555764612791152 (0xA793880F5AB9253391F934D3E924FB70)
Complete name : E:ToyStory[Trilogy](1995-2010)3D-halfOU(Ash61)ToyStory3(2010)3D-halfOU(Ash61)v2.mkv
Format : Matroska
Format version : Version 2
File size : 8.86 GiB
Duration : 1h 43mn
Overall bit rate : 12.3 Mbps
Movie name : История игрушек: Большой побег / Toy Story 3 (2010) в 3Д
Encoded date : UTC 2016-12-27 10:42:25
Writing application : mkvmerge v5.8.0 ('No Sleep / Pillow') built on Sep 2 2012 15:37:04
Writing library : libebml v1.2.3 + libmatroska v1.3.0
Video
ID : 1
Format : AVC
Format/Info : Advanced Video Codec
Format profile : High@L4.1
Format settings, CABAC : Yes
Format settings, ReFrames : 4 frames
Codec ID : V_MPEG4/ISO/AVC
Duration : 1h 43mn
Bit rate : 10.1 Mbps
Width : 1 920 pixels
Height : 1 080 pixels
Display aspect ratio : 16:9
Frame rate mode : Constant
Frame rate : 23.976 fps
Color space : YUV
Chroma subsampling : 4:2:0
Bit depth : 8 bits
Scan type : Progressive
Bits/(Pixel*Frame) : 0.204
Stream size : 7.30 GiB (82%)
Title : BDRip by Ash61
Writing library : x264 core 146 r2538 121396c
Encoding settings : cabac=1 / ref=4 / deblock=1:-3:-3 / analyse=0x3:0x113 / me=umh / subme=10 / psy=1 / psy_rd=1.00:0.00 / mixed_ref=1 / me_range=32 / chroma_me=1 / trellis=2 / 8x8dct=1 / cqm=0 / deadzone=21,11 / fast_pskip=1 / chroma_qp_offset=-2 / threads=12 / lookahead_threads=3 / sliced_threads=0 / nr=0 / decimate=1 / interlaced=0 / bluray_compat=0 / constrained_intra=0 / bframes=10 / b_pyramid=2 / b_adapt=2 / b_bias=0 / direct=3 / weightb=1 / open_gop=0 / weightp=2 / keyint=250 / keyint_min=23 / scenecut=40 / intra_refresh=0 / rc_lookahead=60 / rc=crf / mbtree=1 / crf=15.3 / qcomp=0.70 / qpmin=0 / qpmax=69 / qpstep=4 / vbv_maxrate=40000 / vbv_bufsize=30000 / crf_max=0.0 / nal_hrd=none / filler=0 / frame-packing=4 / ip_ratio=1.40 / aq=1:0.70
Language : English
Default : Yes
Forced : No
Audio #1
ID : 2
Format : AC-3
Format/Info : Audio Coding 3
Mode extension : CM (complete main)
Format settings, Endianness : Big
Codec ID : A_AC3
Duration : 1h 43mn
Bit rate mode : Constant
Bit rate : 640 Kbps
Channel(s) : 6 channels
Channel positions : Front: L C R, Side: L R, LFE
Sampling rate : 48.0 KHz
Bit depth : 16 bits
Compression mode : Lossy
Stream size : 472 MiB (5%)
Title : Дубляж - BD 3D
Language : Russian
Default : Yes
Forced : No
Audio #2
ID : 3
Format : AC-3
Format/Info : Audio Coding 3
Mode extension : CM (complete main)
Format settings, Endianness : Big
Codec ID : A_AC3
Duration : 1h 43mn
Bit rate mode : Constant
Bit rate : 640 Kbps
Channel(s) : 6 channels
Channel positions : Front: L C R, Side: L R, LFE
Sampling rate : 48.0 KHz
Bit depth : 16 bits
Compression mode : Lossy
Stream size : 472 MiB (5%)
Title : Дубляж - BD CEE
Language : Ukrainian
Default : No
Forced : No
Audio #3
ID : 4
Format : AC-3
Format/Info : Audio Coding 3
Mode extension : CM (complete main)
Format settings, Endianness : Big
Codec ID : A_AC3
Duration : 1h 43mn
Bit rate mode : Constant
Bit rate : 640 Kbps
Channel(s) : 6 channels
Channel positions : Front: L C R, Side: L R, LFE
Sampling rate : 48.0 KHz
Bit depth : 16 bits
Compression mode : Lossy
Stream size : 472 MiB (5%)
Title : Original - BD 3D
Language : English
Default : No
Forced : No
Text #1
ID : 5
Format : UTF-8
Codec ID : S_TEXT/UTF8
Codec ID/Info : UTF-8 Plain Text
Title : Форсированные
Language : Russian
Default : Yes
Forced : No
Text #2
ID : 6
Format : UTF-8
Codec ID : S_TEXT/UTF8
Codec ID/Info : UTF-8 Plain Text
Title : Полные
Language : Russian
Default : No
Forced : No
Text #3
ID : 7
Format : UTF-8
Codec ID : S_TEXT/UTF8
Codec ID/Info : UTF-8 Plain Text
Title : Форсированные
Language : Ukrainian
Default : No
Forced : No
Text #4
ID : 8
Format : UTF-8
Codec ID : S_TEXT/UTF8
Codec ID/Info : UTF-8 Plain Text
Title : Полные
Language : Ukrainian
Default : No
Forced : No
Text #5
ID : 9
Format : UTF-8
Codec ID : S_TEXT/UTF8
Codec ID/Info : UTF-8 Plain Text
Title : Коментарии
Language : Ukrainian
Default : No
Forced : No
Text #6
ID : 10
Format : UTF-8
Codec ID : S_TEXT/UTF8
Codec ID/Info : UTF-8 Plain Text
Title : Forced
Language : English
Default : No
Forced : No
Text #7
ID : 11
Format : UTF-8
Codec ID : S_TEXT/UTF8
Codec ID/Info : UTF-8 Plain Text
Title : Full
Language : English
Default : No
Forced : No
Text #8
ID : 12
Format : UTF-8
Codec ID : S_TEXT/UTF8
Codec ID/Info : UTF-8 Plain Text
Title : SDH
Language : English
Default : No
Forced : No
Menu
00:00:00.000 : : 1. Приключение в стиле вестерн / Western Adventure
00:04:53.543 : : 2. Поиграем / Playtime
00:06:20.254 : : 3. Уже взрослый / Grown Up
00:11:37.403 : : 4. Сборы в колледж / College Packing
00:15:17.166 : : 5. Выброшенные / Thrown Away
00:18:34.195 : : 6. По дороге в детский сад / Going to Daycare
00:19:23.869 : : 7. Добро пожаловать в "Солнышко" / Sunnyside Welcome
00:26:17.116 : : 8. А как же Энди? / What About Andy?
00:28:59.403 : : 9. Вуди уходит / Woody Leaves
00:31:47.821 : : 10. Жёсткая игра / Rough Play
00:33:22.333 : : 11. Бонни / Bonnie
00:35:50.063 : : 12. Мы в ловушке! / We're Trapped!
00:37:30.121 : : 13. Игроки / Gambling Den
00:40:11.324 : : 14. Где же дом? / Where's Home?
00:41:12.635 : : 15. Предложение Лотсо / Lotso's Offer
00:43:37.489 : : 16. Я вижу Энди! / I See Andy!
00:44:49.268 : : 17. В клетке / Locked Up
00:48:19.521 : : 18. История Лотсо / Lotso's Story
00:52:28.061 : : 19. Рассвет / Daybreak
00:53:51.894 : : 20. Возвращение Вуди / Woody Returns
00:57:11.969 : : 21. Снова вместе / Reunited
00:58:20.704 : : 22. Побег из тюрьмы / Prison Break
01:01:09.998 : : 23. Гардероб Кена / Ken's Closet
01:02:06.639 : : 24. Тюремный бунт / Prison Riot
01:02:57.023 : : 25. Мистер Голова-Тортилья / Mr. Tortilla Head
01:06:35.032 : : 26. Испанский режим Базза / Spanish Buzz
01:11:21.734 : : 27. Попались / Caught
01:15:57.260 : : 28. Мусоровоз / Garbage Truck
01:17:35.817 : : 29. Свалка / The Dump
01:19:43.194 : : 30. Это конец / End of the Line
01:23:01.934 : : 31. Спасены / Safe and Sound
01:24:59.594 : : 32. Возвращение домой / Back Home
01:28:15.581 : : 33. Прощай, Энди / Goodbye, Andy
01:34:18.277 : : 34. Финальные титры / End Credits[/spoiler][spoiler="Скриншоты"][url=http://fastpic.ru/view/91/2017/0111/bc2168fe8b88761751402874f857d285.png.html][img]http://i91.fastpic.ru/thumb/2017/0111/85/bc2168fe8b88761751402874f857d285.jpeg[/img][/url] [url=http://fastpic.ru/view/91/2017/0111/ebbff34f3979e6fdb54b8cf3adc1b387.png.html][img]http://i91.fastpic.ru/thumb/2017/0111/87/ebbff34f3979e6fdb54b8cf3adc1b387.jpeg[/img][/url] [url=http://fastpic.ru/view/91/2017/0111/_c2c93a7a5864c7aa8279feaa854beb34.png.html][img]http://i91.fastpic.ru/thumb/2017/0111/34/_c2c93a7a5864c7aa8279feaa854beb34.jpeg[/img][/url] [url=http://fastpic.ru/view/91/2017/0111/_0642433b645a52d6ff4443c65c5e0fce.png.html][img]http://i91.fastpic.ru/thumb/2017/0111/ce/_0642433b645a52d6ff4443c65c5e0fce.jpeg[/img][/url] [url=http://fastpic.ru/view/91/2017/0111/1ddae92c4c1fe26846f25015678689d3.png.html][img]http://i91.fastpic.ru/thumb/2017/0111/d3/1ddae92c4c1fe26846f25015678689d3.jpeg[/img][/url] [url=http://fastpic.ru/view/91/2017/0111/377a4e75561ad082cd0336e4944b08f7.png.html][img]http://i91.fastpic.ru/thumb/2017/0111/f7/377a4e75561ad082cd0336e4944b08f7.jpeg[/img][/url] [url=http://fastpic.ru/view/91/2017/0111/61c3c447016d1afb3db21966d134608e.png.html][img]http://i91.fastpic.ru/thumb/2017/0111/8e/61c3c447016d1afb3db21966d134608e.jpeg[/img][/url][/spoiler][spoiler="Для оценки 3Д - Анимированные скрины"][url=http://fastpic.ru/][img]http://i91.fastpic.ru/big/2017/0111/bf/d3a816f98ee80439e8070bd43de630bf.gif[/img][/url]
[url=http://fastpic.ru/][img]http://i91.fastpic.ru/big/2017/0111/0a/d753f28f8fc036de413387bb20bedb0a.gif[/img][/url]
[url=http://fastpic.ru/][img]http://i91.fastpic.ru/big/2017/0111/82/9b6b0c26ef16c284355a8bac10cd0382.gif[/img][/url]
[url=http://fastpic.ru/][img]http://i91.fastpic.ru/big/2017/0111/40/726e77b5126a6ca0fe87738c8d4f0c40.gif[/img][/url]
[url=http://fastpic.ru/][img]http://i91.fastpic.ru/big/2017/0111/bd/ab5824f24f3eb62d5bea8b7460ef1bbd.gif[/img][/url]
[url=http://fastpic.ru/][img]http://i91.fastpic.ru/big/2017/0111/f5/2ab4849851dd0937bf802141465c99f5.gif[/img][/url][/spoiler][hr][/hr][hr][/hr]
[center][url=http://xrutor.org/torrent/225870/faq-o-formatah-i-metodah-prosmotra-3d][b][i]О форматах и методах просмотра 3D[/i][/b][/url]
[hr][/hr][hr][/hr][/center]



   Похожие торренты   Торрент   Размер 
В этой теме нет новых непрочитанных сообщений. История игрушек: Трилогия / Toy Story: Trilogy (1995-2010) BDRip 720p от HELLYWOOD | Лицензия

91 | 24

9.7 ГБ

В этой теме нет новых непрочитанных сообщений. История игрушек. Трилогия / Toy Story. Trilogy (1995-2010) HDRip-AVC от potroks

296 | 18

4.18 ГБ

В этой теме нет новых непрочитанных сообщений. История игрушек. Трилогия / Toy Story. Ultimate Toy Box Collection (1995-2010) BDRip (720p) от NOLIMITS-TEAM

51 | 51

6.57 ГБ

В этой теме нет новых непрочитанных сообщений. История игрушек / Toy Story (1995) BDrip 1080p | 3D-Video

3 | 5

8.2 ГБ

В этой теме нет новых непрочитанных сообщений. История игрушек / Toy Story (1995) BDRip от HQ-ViDEO

829 | 136

1.67 ГБ

В этой теме нет новых непрочитанных сообщений. История игрушек 2 / Toy Story 2 (1999) BDRip от HQ-ViDEO

1173 | 128

1.7 ГБ

В этой теме нет новых непрочитанных сообщений. История игрушек: Большой побег / Toy Story 3 (2010) BDRip 1080p | 3D-Video

11 | 6

12.8 ГБ




Вы не можете начинать темы
Вы не можете отвечать на сообщения
Вы не можете редактировать свои сообщения
Вы не можете удалять свои сообщения
Вы не можете добавлять вложения

Перейти:  
Для Мосгорсуда, Роскомнадзора и рекламодателей: mosgorsud-torrent[собачка]yandex.ru
 Вход
ppkBB3cker v.2 © 2008-2014 @ PPK
[ Time : 0.045s | 16 Queries | GZIP : Off ]

Торрент трекер RUTOR.IN, Не можете зайти на rutor.org? Какой новый адрес рутор? Какое зеркало рутор? Не работает rutor.org и зеркала? Тогда наш торрент специально для вас. Rutor.in неофициальное зеркало rutor. В случае если у Вас заблокирован rutor или вдруг Вы не можете на него зайти, то Вы без труда сможете скачать бесплатно и без рекламы последние новинки кино, игр, сериалов и прочего у нас, на Rutor.in. Не нужно использовать прокси, чтобы зайти на рутор, достаточно воспользоваться нашим ресурсом. Все новые фильмы, игры, сериалы, книги и музыка за 2013 и 2014 годы через торрент бесплатно. Скачивайте фильмы в хорошем качестве, игры для пк, xbox, playstation без регистрации. У нас вы найдете новые Зарубежные сериалы и Русские сериалы 2013, 2014, 2015 годов. Оставайтесь с нами, качайте любимые фильмы, игры, сериалы, книги и музыку.
cron