img image001 image001 image001 image001 image001 image001 image001 image001 image001 image001 image001 image001 image001 image001 image001 image001

Planets Sun Sun Sun
Статистика раздачи
Автор: Nickolas3434 | Размер: 20.77 ГБ | Добавлен: 16 янв 2017
Раздают: 27    Качают: 1
Скачать торрент
Скачать торрент
Описание торрента

СообщениеДобавлено: 16 янв 2017 


Информация о фильме
Название: Шедевры отечественной мультипликации. Русские народные сказки
Год выхода: 1949-1979
Жанр: Мультфильм, короткометражный, фэнтези, детский, семейный
Режиссер: Дмитрий Анпилов, Петр Носов, Роман Давыдов, Ольга Ходатаева, Михаил Цехановский, Зинаида Брумберг, Валентина Брумберг, Иван Иванов-Вано, Михаил Ботов, Александра Снежко-Блоцкая
Роли озвучивают: Мария Бабанова, Вера Орлова, Герман Качин, Владимир Басов ст., Юрий Пузырёв, Людмила Касаткина, Валентина Телегина, Клара Румянова, Роман Филиппов, Ольга Громова, Александр Баранов (I), Юрий Хржановский, Борис Андреев, Мария Бабанова, Вера Орлова, Анатолий Папанов, Георгий Вицин, Алексей Грибов, Георгий Милляр, Александр Румнев, Владимир Грибков, Борис Чирков, Вера Бендина, Михаил Яншин, Александра Денисова, Галина Новожилова, Жанна Балашова, Ирина Маликова, Виталий Ованесов, Татьяна Канаева
О фильме:
Сборник рисованных отечественных мультипликационных фильмов из серии "Шедевры отечественной мультипликации" Русские народные сказки.
Содержание:
1. В некотором царстве… (1957 г., 29 мин.)
Крестьянский парень Емеля отпускает пойманную им щуку обратно в реку. Щука награждает парня волшебным даром исполнения всех его желаний. Емеля, сам того не зная, влюбляет в себя царевну Марью, которая отказывается выйти замуж за заморского принца. Разобиженный принц идёт войной на царство…
2. Волк и семеро козлят (1957 г., 10 мин.)
Однажды голодный Волк услыхал, как Коза спела своим козлятам песенку и они открыли ей дверь. После ухода мамы Козы Волк подобрался к домику и запел ту же песенку. Но козлята, услыхав грубый голос Волка, не пустили его в дом. Тогда Волк пошёл к Медведю-кузнецу. Искусный мастер выковал серому разбойнику тоненький голосок. На этот раз хитрость удалась: Волк проник в дом, забрал всех козлят в мешок и унёс их…
3. Гуси-лебеди (1949 г., 19 мин.)
По мотивам русской народной сказки. Уехали матушка с батюшкой, а дочери наказ оставили братца Ваню беречь, со двора не выпускать. Заигралась Машенька, да не доглядела: унесли братика гуси-лебеди, помощники Бабы Яги. Теперь Машеньке надо выручать Ваню, а помогут ей в этом добрые друзья: яблонька, печка, речка и др.
4. Петушок – Золотой гребешок (1955 г., 11 мин.)
Петушок – Золотой Гребешок, не послушав наказа своих друзей Кота и Дрозда, попадает в лапы к Лисе. Рыжая разбойница дважды уносит Петушка в лес. Но каждый раз на выручку товарищу спешат Кот и Дрозд…
5. Последняя невеста Змея Горыныча (1978 г., 18 мин.)
В основе фильма – русская народная сказка о добром и бесстрашном солдате, который всегда помогает тем, кто оказался в беде
6. Сестрица Алёнушка и братец Иванушка (1953 г., 11 мин.)
По мотивам русской народной сказки. Не послушался Иванушка своей сестрицы, испил водицы из лужицы, в которой копытце отпечаталось, и превратился в козленочка…
7. Царевна-лягушка (1954 г., 39 мин.)
В некотором царстве, в некотором государстве жил-был царь. И задумал он женить своих сыновей. Решили они послать свои стрелы в разные стороны, какая куда попадет, там и невесту искать. Попала посланная Иваном-царевичем стрела на болотную кочку, где сидела лягушка…
8. Чудесный колокольчик (1949 г., 20 мин.)
Отправила злая мачеха приёмную дочь с глаз долой. Приказала сидеть в лесу, пока не спрядёт целый воз шерсти. Попала Маша в землянку к медведю. Прибрала в горнице, обед приготовила, мышку досыта накормила. Пришёл вечером хозяин. Понравилось ему, как управилась девочка с делами. За ночь спряли они с мышью всю шерсть, а на утро отправили Машу домой с богатыми подарками.
Позавидовала мачеха неожиданным дарам и отправила в лес родную дочь – Лушу. Та всё сделала наоборот. В комнате навела беспорядок и медведю с мышкой надерзила. Потребовала себе набить повозку мехами, да серебром с золотом. Поехала домой, но по дороге кони, обратившись в сов, улетели прочь, а всё её богатство превратилось в кучу черепков.
Страна: СССР
Студия: Союзмультфильм
Продолжительность: 02:33:10
Перевод: Не требуется
Файл
Кодек: MPEG-4 AVC Video
Качество: Blu-Ray 1080i
Видео: 1920x1080 (16:9), 25 fps, MPEG-4 AVC Video ~18119 kbps avg, High Profile 4.0
Звук: Dolby Digital Audio Russian 192 kbps 2.0 / 48 kHz / 192 kbps
Субтитры: Отсутствуют
DISC INFO:
Disc Title: RUSSKIE_NARODNYE_SKAZKI (2016) Blu-ray RUS 1080i AVC DD 2.0
Disc Size: 22 303 677 266 bytes
Protection: AACS
BD-Java: Yes
Extras: 50Hz Content
BDInfo: 0.5.8
PLAYLIST REPORT:
Name: 01011.MPLS
Length: 2:33:10.840 (h:m:s.ms)
Size: 22 101 479 424 bytes
Total Bitrate: 19,24 Mbps
VIDEO:
Codec Bitrate Deion
----- ------- -----------
MPEG-4 AVC Video 18119 kbps 1080i / 25 fps / 16:9 / High Profile 4.0
AUDIO:
Codec Language Bitrate Deion
----- -------- ------- -----------
Dolby Digital Audio Russian 192 kbps 2.0 / 48 kHz / 192 kbps
FILES:
Name Time In Length Size Total Bitrate
---- ------- ------ ---- -------------
00002.M2TS 0:00:00.000 0:28:24.120 4 202 833 920 19 730
00003.M2TS 0:28:24.120 0:10:07.920 1 427 920 896 18 791
00004.M2TS 0:38:32.040 0:18:31.360 2 683 115 520 19 314
00005.M2TS 0:57:03.400 0:10:03.720 1 393 876 992 18 471
00006.M2TS 1:07:07.120 0:17:50.640 2 623 537 152 19 604
00007.M2TS 1:24:57.760 0:10:10.600 1 442 285 568 18 897
00008.M2TS 1:35:08.360 0:38:47.520 5 572 706 304 19 154
00009.M2TS 2:13:55.880 0:19:14.960 2 755 203 072 19 084



   Похожие торренты   Торрент   Размер 
В этой теме нет новых непрочитанных сообщений. Шедевры отечественной мультипликации. Русские народные сказки (1949-1978) BDRip

173 | 8

2.17 ГБ

В этой теме нет новых непрочитанных сообщений. Шедевры отечественной мультипликации. Сказки А. С. Пушкина (1950-1984) Blu-ray RUS 1080i от HDClub

20 | 6

22.41 ГБ

В этой теме нет новых непрочитанных сообщений. Шедевры отечественной мультипликации. Сказки зарубежных писателей. Выпуск 1 (1955-1976) Blu-Ray 1080i

17 | 6

22.27 ГБ

В этой теме нет новых непрочитанных сообщений. Шедевры отечественной мультипликации. Сказки А. С. Пушкина (1950-1984) BDRip

56 | 2

2.18 ГБ

В этой теме нет новых непрочитанных сообщений. Шедевры отечественной мультипликации. Сказки А. С. Пушкина (1950-1984) HDRip-AVC

19 | 0

2.77 ГБ

В этой теме нет новых непрочитанных сообщений. Шедевры отечественной мультипликации. Сказки А. С. Пушкина (1950-1984) BDRip 720p

3 | 0

6.13 ГБ

В этой теме нет новых непрочитанных сообщений. Шедевры отечественной мультипликации. Сказки А. С. Пушкина (1950-1984) BDRip 1080p

19 | 0

11.82 ГБ




Вы не можете начинать темы
Вы не можете отвечать на сообщения
Вы не можете редактировать свои сообщения
Вы не можете удалять свои сообщения
Вы не можете добавлять вложения

Перейти:  
 Вход
ppkBB3cker v.2 © 2008-2014 @ PPK
[ Time : 0.042s | 15 Queries | GZIP : Off ]

cron