img image001 image001 image001 image001 image001 image001 image001 image001 image001 image001 image001 image001 image001 image001 image001

Planets Sun Sun Sun
Статистика раздачи
Автор: PriZraK | Размер: 1.61 ГБ | Добавлен: 28 янв 2017
Раздают: 42    Качают: 0
Скачать торрент
Скачать торрент
Описание торрента

СообщениеДобавлено: 28 янв 2017 


Название: Бэмби
Оригинальное название: Bambi


Год выпуска: 1942
Страна: США
Жанр: мультфильм, драма, семейный
Продолжительность: 01:09:50
Перевод: Дублированный
Субтитры: Russian, English


В ролях: Харди Олбрайт, Стэн Александр, Бобетт Одри, Питер Бен, Тельма Бордман, Джанет Чэпман, Джинн Кристи, Мэрион Дарлингтон, Тим Дэвис
Режиссёр: Джеймс Алгар, Сэмюэл Армстронг


Описание: Однажды утром на маленькой, освещенной весенним солнцем, лесной полянке родился олененок. На нового лесного принца сбежались и слетелись посмотреть все звери и птицы. Олененка назвали Бемби.
Когда Бемби научился ходить и разговаривать он обзавелся друзьями - кроликом Тампером и скунсом Цветочком. А однажды на лугу, куда привела его мама, Бэмби познакомился с маленькой веселой оленихой - Фэйлин. Но жизнь в лесу бывает опасной и жестокой. Впервые Бемби столкнулся с этим, когда прозрачный осенний лесной воздух пронзили выстрелы из ружья - все звери начали в панике убегать, и тогда Бемби впервые услышал страшное слово - Человек.


Качество: BDRip 1080p
Формат: MKV
Видео кодек: x265
Аудио кодек: AC3
Видео: 1454x1080, 23,976 fps, HEVC, ~2274 kbps, 10bit
Аудио: Rus, 48 kHz/16-bit, AC3 5.1, ~384 kbps | Дубляж
Аудио: Eng, 48 kHz/16-bit, AC3 5.1, ~640 kbps | Оригинал
Навигация по главам: Отсутствует


Автор рипа: Alex_A









- H.265/HEVC (High Efficiency Video Coding) - это новый стандарт кодирования видео.
- Стандарт H.265/HEVC является логическим продолжением стандарта H.264/AVC (Advanced Video Coding), и характеризуется более эффективными алгоритмами сжатия, а также поддержкой высокого разрешения вплоть до 8K UHD (8192x4320). Первая версия стандарта H.265 была опубликована в начале 2013 года.
- Рипы в фомате HEVC поддерживается не всеми аппаратными проигрывателями.
- Для корректного воспроизведения может потребоваться обновление ПО.
- Владельцам несовместимого железа просьба не беспокоить, есть альтернативные релизы.

Общее
Уникальный идентификатор : 208481985201702371157261298301832944018 (0x9CD82B7918876B189E268BE6FD5E5992)
Полное имя : E:HEVCBembi (1942)Bembi.1942.1080p_HEVCCLUB.mkv
Формат : Matroska
Версия формата : Version 4 / Version 2
Размер файла : 1,61 Гбайт
Продолжительность : 1 ч. 9 м.
Общий поток : 3301 Кбит/сек
Название фильма : Bambi (1942) - HEVC.CLUB
Дата кодирования : UTC 2017-01-14 09:21:32
Программа кодирования : mkvmerge v9.7.0 ('Numbers') 64bit
Библиотека кодирования : libebml v1.3.4 + libmatroska v1.4.5
Обложка : Yes
Attachments : cover.jpg
Видео
Идентификатор : 1
Формат : HEVC
Формат/Информация : High Efficiency Video Coding
Профиль формата : Main 10@L4.1@High
Идентификатор кодека : V_MPEGH/ISO/HEVC
Продолжительность : 1 ч. 9 м.
Битрейт : 2274 Кбит/сек
Ширина : 1454 пикселя
Высота : 1080 пикселей
Соотношение сторон : 4:3
Режим частоты кадров : Постоянный
Частота кадров : 23,976 (24000/1001) кадра/сек
Цветовое пространство : YUV
Субдискретизация насыщенности : 4:2:0
Битовая глубина : 10 бит
Бит/(Пиксели*Кадры) : 0.060
Размер потока : 1,11 Гбайт (69%)
Заголовок : HEVC.CLUB
Библиотека кодирования : x265 2.2+22-20217c8af8ac:[Windows][GCC 6.2.0][64 bit] 10bit
Настройки программы : cpuid=1173503 / frame-threads=3 / numa-pools=8 / wpp / no-pmode / no-pme / no-psnr / ssim / log-level=2 / input-csp=1 / input-res=1454x1080 / interlace=0 / total-frames=0 / level-idc=41 / high-tier=1 / uhd-bd=0 / ref=5 / no-allow-non-conformance / repeat-headers / annexb / aud / hrd / info / hash=0 / no-temporal-layers / open-gop / min-keyint=23 / keyint=250 / bframes=8 / b-adapt=2 / b-pyramid / bframe-bias=0 / rc-lookahead=60 / lookahead-slices=1 / scenecut=40 / no-intra-refresh / ctu=32 / min-cu-size=8 / no-rect / no-amp / max-tu-size=32 / tu-inter-depth=2 / tu-intra-depth=2 / limit-tu=0 / rdoq-level=1 / signhide / no-tskip / nr-intra=0 / nr-inter=0 / no-constrained-intra / no-strong-intra-smoothing / max-merge=2 / limit-refs=3 / no-limit-modes / me=1 / subme=5 / merange=60 / temporal-mvp / weightp / weightb / no-analyze-src-pics / deblock=-3:-3 / no-sao / no-sao-non-deblock / rd=4 / no-early-skip / no-rskip / no-fast-intra / no-tskip-fast / no-cu-lossless / no-b-intra / rdpenalty=0 / psy-rd=1.70 / psy-rdoq=2.50 / no-rd-refine / analysis-mode=0 / no-lossless / cbqpoffs=0 / crqpoffs=0 / rc=crf / crf=22.0 / qcomp=0.90 / qpstep=6 / stats-write=0 / stats-read=0 / vbv-maxrate=50000 / vbv-bufsize=50000 / vbv-init=0.9 / crf-max=0.0 / crf-min=0.0 / ipratio=1.50 / pbratio=1.00 / aq-mode=1 / aq-strength=0.50 / no-cutree / zone-count=0 / no-strict-cbr / qg-size=32 / no-rc-grain / qpmax=69 / qpmin=0 / sar=1 / overscan=0 / videoformat=5 / range=0 / colorprim=2 / transfer=2 / colormatrix=1 / chromaloc=0 / display-window=0 / max-cll=0,0 / min-luma=0 / max-luma=1023 / log2-max-poc-lsb=8 / vui-timing-info / vui-hrd-info / slices=1 / opt-qp-pps / opt-ref-list-length-pps / no-multi-pass-opt-rps / scenecut-bias=0.05 / no-opt-cu-delta-qp / no-aq-motion
Default : Да
Forced : Да
Цветовой диапазон : Limited
Коэффициенты матрицы : BT.709
Аудио #1
Идентификатор : 2
Формат : AC-3
Формат/Информация : Audio Coding 3
Расширение режима : CM (complete main)
Параметр Endianness формата : Big
Идентификатор кодека : A_AC3
Продолжительность : 1 ч. 9 м.
Вид битрейта : Постоянный
Битрейт : 384 Кбит/сек
Каналы : 6 каналов
Расположение каналов : Front: L C R, Side: L R, LFE
Частота : 48,0 КГц
Частота кадров : 31,250 кадров/сек (1536 spf)
Битовая глубина : 16 бит
Метод сжатия : С потерями
Размер потока : 192 Мбайт (12%)
Заголовок : Dub
Язык : Russian
Default : Нет
Forced : Нет
Аудио #2
Идентификатор : 3
Формат : AC-3
Формат/Информация : Audio Coding 3
Расширение режима : CM (complete main)
Параметр Endianness формата : Big
Идентификатор кодека : A_AC3
Продолжительность : 1 ч. 9 м.
Вид битрейта : Постоянный
Битрейт : 640 Кбит/сек
Каналы : 6 каналов
Расположение каналов : Front: L C R, Side: L R, LFE
Частота : 48,0 КГц
Частота кадров : 31,250 кадров/сек (1536 spf)
Битовая глубина : 16 бит
Метод сжатия : С потерями
Размер потока : 320 Мбайт (19%)
Заголовок : Original
Язык : English
Default : Нет
Forced : Нет
Текст #1
Идентификатор : 4
Формат : UTF-8
Идентификатор кодека : S_TEXT/UTF8
Идентификатор кодека/Информация : UTF-8 Plain Text
Продолжительность : 1 ч. 9 м.
Битрейт : 31 бит/сек
Count of elements : 410
Размер потока : 15,9 Кбайт (0%)
Язык : Russian
Default : Нет
Forced : Нет
Текст #2
Идентификатор : 5
Формат : UTF-8
Идентификатор кодека : S_TEXT/UTF8
Идентификатор кодека/Информация : UTF-8 Plain Text
Продолжительность : 1 ч. 9 м.
Битрейт : 19 бит/сек
Count of elements : 413
Размер потока : 10,0 Кбайт (0%)
Язык : English
Default : Нет
Forced : Нет





   Похожие торренты   Торрент   Размер 
В этой теме нет новых непрочитанных сообщений. Бэмби / Bambi (1942) BDRip HEVC 720p | D

16 | 0

1.1 ГБ

В этой теме нет новых непрочитанных сообщений. Бэмби / Bambi (1942) BDRip 1080p | 60 fps

108 | 5

4.23 ГБ

В этой теме нет новых непрочитанных сообщений. Бэмби / Bambi (1942) BDRip 1080p от MediaClub

42 | 6

5.5 ГБ

В этой теме нет новых непрочитанных сообщений. Бэмби / Bambi (1942) BDRip 1080p от KinoZalSat

183 | 12

4.17 ГБ

В этой теме нет новых непрочитанных сообщений. Бэмби / Bambi (1942) BDRip 1080p от Freeisland

7 | 2

5.22 ГБ

В этой теме нет новых непрочитанных сообщений. Бэмби / Bambi (1942) BDRip-AVC | iPad

200 | 8

882.28 МБ

В этой теме нет новых непрочитанных сообщений. Бэмби / Bambi (1942) BDRip 720p | 60 fps

390 | 16

2.32 ГБ




Вы не можете начинать темы
Вы не можете отвечать на сообщения
Вы не можете редактировать свои сообщения
Вы не можете удалять свои сообщения
Вы не можете добавлять вложения

Перейти:  
Для Мосгорсуда, Роскомнадзора и рекламодателей: mosgorsud-torrent[собачка]yandex.ru
 Вход
ppkBB3cker v.2 © 2008-2014 @ PPK
[ Time : 0.170s | 15 Queries | GZIP : Off ]

Торрент трекер RUTOR.IN, Не можете зайти на rutor.org? Какой новый адрес рутор? Какое зеркало рутор? Не работает rutor.org и зеркала? Тогда наш торрент специально для вас. Rutor.in неофициальное зеркало rutor. В случае если у Вас заблокирован rutor или вдруг Вы не можете на него зайти, то Вы без труда сможете скачать бесплатно и без рекламы последние новинки кино, игр, сериалов и прочего у нас, на Rutor.in. Не нужно использовать прокси, чтобы зайти на рутор, достаточно воспользоваться нашим ресурсом. Все новые фильмы, игры, сериалы, книги и музыка за 2013 и 2014 годы через торрент бесплатно. Скачивайте фильмы в хорошем качестве, игры для пк, xbox, playstation без регистрации. У нас вы найдете новые Зарубежные сериалы и Русские сериалы 2013, 2014, 2015 годов. Оставайтесь с нами, качайте любимые фильмы, игры, сериалы, книги и музыку.
cron