img image001 image001 image001 image001 image001 image001 image001 image001 image001 image001 image001 image001 image001 image001 image001 image001

Planets Sun Sun Sun
Статистика раздачи
Автор: PriZraK | Размер: 744.18 МБ | Добавлен: 31 янв 2017
Раздают: 83    Качают: 1
Скачать торрент
Скачать торрент
Описание торрента

СообщениеДобавлено: 31 янв 2017 

Страна: СССР
Производство: Союзмультфильм
Жанр: мультфильм, фантастика, фэнтези, приключения, семейный
Год выпуска: 1981
Продолжительность: 00:47:34
Перевод: Не требуется
Cубтитры: нет
Оригинальная аудиодорожка: русский
Режиссер: Роман Качанов
Роли озвучивали:
Ольга Громова, Всеволод Ларионов, Юрий Волынцев, Василий Ливанов, Григорий Шпигель, Пётр Вишняков, Владимир Дружников, Владимир Кенигсон, Юрий Андреев, Екатерина Краснобаева, Татьяна Маврина, Рина Зелёная, Николай Граббе, Игорь Ясулович, Роман Качанов (младший)...
Об актёрах подробней
Описание:
Экранизация повести Кира Булычёва «Путешествие Алисы» («Алиса и три капитана») из цикла «Приключения Алисы».
Приключения девочки Алисы, ее ученого папы и меланхолика капитана Зеленого, а также добродушного чудовища Громозеки и птицы Говоруна, который, как известно, отличается умом и сообразительностью.





Источник: DVD5 R5
Качество: DVDRip-AVC
Формат: MKV
Видео: 712->766x574 (4:3), 25,000 кадров/сек, H264 ~ 1739 kbps avg, 0.170 bit/pixel
Аудио: 48 kHz, Dolby Digital AC3 5.1, 448 kbps
Раздача от:
Общее
Полное имя : Tayna.tretey.planety.DVDRip-AVC_[New-team]_by_AVP_Studio.mkv
Формат : Matroska
Версия формата : Version 2
Размер файла : 744 Мбайт
Продолжительность : 47 м. 34 с.
Общий поток : 2187 Кбит/сек
Дата кодирования : UTC 2017-01-30 19:54:41
Программа кодирования : mkvmerge v6.1.0 ('Old Devil') built on Mar 4 2013 09:10:42
Библиотека кодирования : libebml v1.3.0 + libmatroska v1.4.0
Видео
Идентификатор : 1
Формат : AVC
Формат/Информация : Advanced Video Codec
Профиль формата : High@L4.1
Параметр CABAC формата : Да
Параметр ReFrames формата : 10 кадров
Идентификатор кодека : V_MPEG4/ISO/AVC
Продолжительность : 47 м. 34 с.
Битрейт : 1739 Кбит/сек
Ширина : 712 пикселей
Высота : 574 пикселя
Соотношение сторон : 4:3
Режим частоты кадров : Постоянный
Частота кадров : 25,000 кадров/сек
Цветовое пространство : YUV
Субдискретизация насыщенности : 4:2:0
Битовая глубина : 8 бит
Тип развёртки : Прогрессивная
Бит/(Пиксели*Кадры) : 0.170
Размер потока : 577 Мбайт (78%)
Библиотека кодирования : x264 core 148 r2597 e86f3a1
Настройки программы : cabac=1 / ref=10 / deblock=1:-2:-1 / analyse=0x3:0x113 / me=umh / subme=10 / psy=1 / psy_rd=1.00:0.00 / mixed_ref=1 / me_range=32 / chroma_me=1 / trellis=2 / 8x8dct=1 / cqm=0 / deadzone=21,11 / fast_pskip=1 / chroma_qp_offset=-2 / threads=6 / lookahead_threads=1 / sliced_threads=0 / nr=0 / decimate=0 / interlaced=0 / bluray_compat=0 / constrained_intra=0 / bframes=8 / b_pyramid=2 / b_adapt=2 / b_bias=0 / direct=3 / weightb=1 / open_gop=0 / weightp=2 / keyint=250 / keyint_min=25 / scenecut=40 / intra_refresh=0 / rc=2pass / mbtree=0 / bitrate=1739 / ratetol=1.0 / qcomp=0.60 / qpmin=0 / qpmax=69 / qpstep=4 / cplxblur=20.0 / qblur=0.5 / ip_ratio=1.40 / pb_ratio=1.30 / aq=1:1.00
Default : Да
Forced : Нет
Аудио
Идентификатор : 2
Формат : AC-3
Формат/Информация : Audio Coding 3
Расширение режима : CM (complete main)
Параметр Endianness формата : Big
Идентификатор кодека : A_AC3
Продолжительность : 47 м. 34 с.
Вид битрейта : Постоянный
Битрейт : 448 Кбит/сек
Каналы : 6 каналов
Расположение каналов : Front: L C R, Side: L R, LFE
Частота : 48,0 КГц
Частота кадров : 31,250 кадров/сек (1536 spf)
Битовая глубина : 16 бит
Метод сжатия : С потерями
Размер потока : 152 Мбайт (20%)
Default : Да
Forced : Нет





   Похожие торренты   Торрент   Размер 
В этой теме нет новых непрочитанных сообщений. Тайна третьей планеты / Тайна третьей планеты (Роман Качанов) [1981, мультфильм, фантастика, фэнтези, приключения, семейный, HDDVDRip 720p]

2 | 0

1.57 ГБ

В этой теме нет новых непрочитанных сообщений. Тайна третьей планеты (1981) DVDRip от New-Team

28 | 0

743.91 МБ

В этой теме нет новых непрочитанных сообщений. Тайна третьей планеты (1981) DVDRip-AVC

197 | 8

265.47 МБ

В этой теме нет новых непрочитанных сообщений. Тайна третьей планеты (1981) DVDRip от R.G.RealMT | Реставрация

169 | 6

640.82 МБ

В этой теме нет новых непрочитанных сообщений. Тайна третьей планеты (1981) DVDRip от MediaClub | Реставрация

416 | 24

740.72 МБ

В этой теме нет новых непрочитанных сообщений. Тайна третьей планеты (1981) DVDRip от R.G. Mobile-Men | Реставрация

162 | 13

556.1 МБ

В этой теме нет новых непрочитанных сообщений. Тайна третьей планеты (1978-1981) DVDRemux

244 | 12

2.32 ГБ




Вы не можете начинать темы
Вы не можете отвечать на сообщения
Вы не можете редактировать свои сообщения
Вы не можете удалять свои сообщения
Вы не можете добавлять вложения

Перейти:  
 Вход
ppkBB3cker v.2 © 2008-2014 @ PPK
[ Time : 0.050s | 18 Queries | GZIP : Off ]

cron