img image001 image001 image001 image001 image001 image001 image001 image001 image001 image001 image001 image001 image001 image001 image001

Planets Sun Sun Sun

COVID-19 - Последняя информация о коронавирусе на сайте Минздрава


Статистика раздачи
Автор: PriZraK | Размер: 2.66 ГБ | Добавлен: 08 фев 2017
Раздают: 187    Качают: 12
Скачать торрент
Скачать торрент
Описание торрента

СообщениеДобавлено: 08 фев 2017 

Название: Темная Вселенная (Тёмная Лига Справедливости)
Оригинальное название: Justice League Dark
Год выхода: 2017
Жанр: Мультфильм, фантастика, фэнтези, боевик, триллер, комикс, полнометражный
Режиссер: Джей Олива

В ролях:
Розарио Доусон, Камилла Ладдингтон, Джейсон О’Мара, Альфред Молина, Джерри О`Коннелл, Джереми Дэвис, Рэй Чейз, Мэтт Райан, Ди Брэдли Бэйкер, Роджер Р. Кросс

Описание фильма:
Мультфильм «Темная Лига Справедливости (Justice League Dark)» очень порадует поклонников супергероев DC. Главой группы сверхъестественных героев выступает Джон Константин, в команду которого входят - Болотная тварь, Затанна, Мертвец, Демон и Черная орхидея. Все они объединяются в Темную Лигу Справедливости, чтобы взять на себя оккультные и сверхъестественные угрозы, против которых Лига Справедливости может оказаться бессильной. Сюжет многообещающий, и не зря, ведь сценаристом этого шедевра является Гильермо дель Торо.

Страна: США
Продолжительность: 01:16:20
Перевод: Любительский многоголосый закадровый Shadow Dub
Субтитры: Отсутствуют
Отсутствует

Озвучено проектом Shadow Dub, при участии RusFilm, RainDub & BZEKE.
Перевод - SpeedForce Interpreters
Роли озвучивали: Евгений Леонов, Ksedden Kurai, Руслан Асланов, Анастасия Гайдаржи, Марина Фандера, Василий Чупров, Нана Саркисян, Алёна Тельпук, Игорь Николаенков, Дмитрий Фокин & Игорь Хрусталев
Звукорежиссёр и монтаж - Руслан Асланов.




Файл
Формат: MKV
Качество: BDRip (720p)

Видео: MPEG-4 AVC, 4806 Кбит/с, 1280x720
Аудио: Русский (AC3, 6 ch, 384 Кбит/с), английский (AC3, 6 ch, 384 Кбит/с)

Format : MPEG-4
Format profile : Base Media
Codec ID : isom (isom/iso2/avc1/mp41)
File size : 2.66 GiB
Duration : 1h 16mn
Overall bit rate : 4 993 Kbps
Encoded date : UTC 2017-02-07 16:52:30
Tagged date : UTC 2017-02-07 16:52:30
Writing application : Lavf51.12.1

Video
ID : 1
Format : AVC
Format/Info : Advanced Video Codec
Format profile : Baseline@L3.1
Format settings, CABAC : No
Format settings, ReFrames : 1 frame
Format settings, GOP : M=1, N=12
Codec ID : avc1
Codec ID/Info : Advanced Video Coding
Duration : 1h 16mn
Bit rate : 4 608 Kbps
Width : 1 280 pixels
Height : 720 pixels
Display aspect ratio : 16:9
Frame rate mode : Variable
Frame rate : 23.976 (23976/1000) fps
Minimum frame rate : 3.996 fps
Maximum frame rate : 23.976 fps
Color space : YUV
Chroma subsampling : 4:2:0
Bit depth : 8 bits
Scan type : Progressive
Bits/(Pixel*Frame) : 0.209
Stream size : 2.46 GiB (92%)
Language : English
Encoded date : UTC 2017-02-07 16:52:30
Tagged date : UTC 2017-02-07 16:52:30

Audio
ID : 2
Format : AC-3
Format/Info : Audio Coding 3
Mode extension : CM (complete main)
Format settings, Endianness : Big
Codec ID : ac-3
Duration : 1h 16mn
Bit rate mode : Constant
Bit rate : 384 Kbps
Channel(s) : 6 channels
Channel positions : Front: L C R, Side: L R, LFE
Sampling rate : 48.0 KHz
Frame rate : 31.250 fps (1536 spf)
Bit depth : 16 bits
Compression mode : Lossy
Stream size : 210 MiB (8%)
Language : English
Encoded date : UTC 2017-02-07 16:52:30
Tagged date : UTC 2017-02-07 16:52:30


   Похожие торренты   Торрент   Размер 
В этой теме нет новых непрочитанных сообщений. Темная Вселенная / Темная лига справедливости / Justice League Dark (2017) BDRip от rs.bandito | L

108 | 4

1.48 ГБ

В этой теме нет новых непрочитанных сообщений. Темная Вселенная / Тёмная Лига Справедливости / Justice League Dark (2017) BDRemux 1080p от CasStudio | D

4 | 0

10.61 ГБ

В этой теме нет новых непрочитанных сообщений. Темная Вселенная / Темная лига справедливости / Justice League Dark (Джей Олива) [2017, мультфильм, ужасы, фантастика, фэнтези, боевик, BDRip-AVC] DUB(rus)+2xMVO(rus) / Marvel

3 | 2

2.11 ГБ

В этой теме нет новых непрочитанных сообщений. Темная Вселенная / Justice League Dark (2017) BDRip 720р от ExKinoRay | L

16 | 0

2.23 ГБ

В этой теме нет новых непрочитанных сообщений. Тёмная Лига Справедливости / Justice League Dark (2017) WEBRip 720p | ZM-SHOW

23 | 0

839.33 МБ

В этой теме нет новых непрочитанных сообщений. Темная Вселенная / Justice League Dark (2017) BDRip 1080р от ExKinoRay | L

21 | 0

3.81 ГБ

В этой теме нет новых непрочитанных сообщений. Темная Вселенная / Justice League Dark (2017) BDRip-AVC от ExKinoRay | L

9 | 2

1.45 ГБ




Вы не можете начинать темы
Вы не можете отвечать на сообщения
Вы не можете редактировать свои сообщения
Вы не можете удалять свои сообщения
Вы не можете добавлять вложения

Перейти:  
Контактная информация: rstracker[пёсик]yandex.ru
cron
 Вход
ppkBB3cker v.2 © 2008-2014 @ PPK
[ Time : 0.029s | 16 Queries | GZIP : Off ]

cron