img image001 image001 image001 image001 image001 image001 image001 image001 image001 image001 image001 image001 image001 image001 image001 image001

Planets Sun Sun Sun
Статистика раздачи
Автор: PriZraK | Размер: 6.61 ГБ | Добавлен: 11 фев 2017
Раздают: 7    Качают: 3
Скачать торрент
Скачать торрент
Описание торрента

СообщениеДобавлено: 11 фев 2017 


Информация о фильме
Название: Легенды ночных стражей
Оригинальное название: Legend of the Guardians: The Owls of Ga’Hoole
Год выхода: 2010
Жанр: мультфильм, фэнтези, боевик, приключения, семейный
Режиссер: Зак Снайдер
В ролях: Джим Стерджесс, Райан Квантен, Джоэл Эдгертон, Хелен Миррен, Джеффри Раш, Эдриэнн ДеФариа, Эмили Барклай, Сэм Нил, Энтони ЛаПалья, Дэвид Уэнэм
О фильме:
Миром, в котором уже не осталось людей, правят совы… добрые… злые… как и всегда! В волшебном лесу — королевстве сов Тито — на Великом Дереве Га`Хуул, где разумные совы живут в гармонии, наступают мрачные времена. Королевство подвергается страшной опасности со стороны соседних жестоких правителей, и эта опасность грозит уничтожить привычное мироздание.

Страна: США, Австралия
Студия: Animal Logic, Village Roadshow Pictures, Warner Bros. Pictures
Продолжительность: 01:36:48
Перевод: Профессиональный (полное дублированние)
- Авторский (одноголосый, закадровый) [Ю.Сербин]
- Любительский (одноголосый, закадровый) [В. Замез]
- Оригинал (Английский)
Субтитры: Русские, английские, болгарские, арабские, китайские, чешские, датские, немецкие, французские, греческие, польские, португальские, румынские, испанские, шведские, турецкие, вьетнамские / (полные), (вшитые, отключаемые, srt/UTF-8)
Файл
Формат: MKV
Качество: BDRip 720p / исх. Legend of the Guardians.2010.BD.Remux.1080p.H264.Rus.Eng.Commentary.mkv (спасибо radical)
Видео: 1280х544 (2.35:1), 23.976 fps, x.264, ~5659kbps, 0.339 bit/(pixel*frame)
Аудио #1:48 kHz, AC3 Dolby Digital, 3/2 (L,R) ch + LFE, ~640 kbps | Профессиональный (полное дублированние)
Аудио #2:48 kHz, Digital Theater System, 3/2 (L,C,R,l,r) + LFE ch, ~1509 kbps | Авторский (одноголосый, закадровый) Юрий Сербин
Аудио #3:48 kHz, AC3 Dolby Digital, 3/2 (L,R) ch + LFE, ~448 kbps | Любительский (одноголосый, закадровый)Вячеслав Замез ака Zamez
Аудио #4:48 kHz, Digital Theater System, 3/2 (L,C,R,l,r) + LFE ch, ~1509 kbps | Оригинал
Cэмпл: Скачать



Общее
Уникальный идентификатор : 238908656473838826594737023568567110541 (0xB3BC22302D6ADC82A34B3F543FD08B8D)
Полное имя : D:VideoLegend of the Guardians The Owls of Ga'Hoole.2010.BDRip 720p.WazZzuP1.mkv
Формат : Matroska
Версия формата : Version 4 / Version 2
Размер файла : 6,61 Гбайт
Продолжительность : 1 ч. 36 м.
Общий поток : 9770 Кбит/сек
Название фильма : Legend of the Guardians The Owls of Ga'Hoole.2010.BDRip 720p.WazZzuP
Дата кодирования : UTC 2017-02-08 14:34:24
Программа кодирования : mkvmerge v9.8.0 ('Kuglblids') 32bit
Библиотека кодирования : libebml v1.3.4 + libmatroska v1.4.5
Attachments : poster
Видео
Идентификатор : 1
Формат : AVC
Формат/Информация : Advanced Video Codec
Профиль формата : High@L4.1
Параметр CABAC формата : Да
Параметр ReFrames формата : 12 кадров
Идентификатор кодека : V_MPEG4/ISO/AVC
Продолжительность : 1 ч. 36 м.
Битрейт : 5659 Кбит/сек
Ширина : 1280 пикселей
Высота : 544 пикселя
Соотношение сторон : 2,35:1
Режим частоты кадров : Постоянный
Частота кадров : 23,976 (24000/1001) кадра/сек
Цветовое пространство : YUV
Субдискретизация насыщенности : 4:2:0
Битовая глубина : 8 бит
Тип развёртки : Прогрессивная
Бит/(Пиксели*Кадры) : 0.339
Размер потока : 3,83 Гбайт (58%)
Заголовок : Legend of the Guardians The Owls of Ga'Hoole / Легенды ночных стражей
Библиотека кодирования : x264 core 148 r2744kMod b97ae06
Настройки программы : cabac=1 / ref=12 / deblock=1:-3:-2 / analyse=0x3:0x133 / me=umh / subme=11 / psy=1 / fade_compensate=0.00 / psy_rd=0.85:0.00 / mixed_ref=1 / me_range=32 / chroma_me=1 / trellis=2 / 8x8dct=1 / cqm=0 / deadzone=21,11 / fast_pskip=0 / chroma_qp_offset=-2 / threads=3 / lookahead_threads=1 / sliced_threads=0 / nr=0 / decimate=1 / interlaced=0 / bluray_compat=0 / constrained_intra=0 / bframes=7 / b_pyramid=2 / b_adapt=2 / b_bias=0 / direct=3 / weightb=1 / open_gop=0 / weightp=2 / keyint=250 / keyint_min=23 / scenecut=40 / intra_refresh=0 / rc=crf / mbtree=0 / crf=15.4000 / qcomp=0.65 / qpmin=10 / qpmax=69 / qpstep=4 / ip_ratio=1.40 / pb_ratio=1.30 / aq=2:0.90 / zones=798,935,b=1.5/1020,1113,b=2/6926,6974,b=1.5/8274,8403,b=2/42671,42702,b=2/57861,57962,b=2/59086,59186,b=1.5/86789,86831,b=1.5/91780,91852,b=2/92366,92516,b=1.5/99970,100194,b=1.5/100971,101070,b=1.5/103334,103449,b=2/106170,106403,b=1.5/107379,107548,b=1.5/111872,111971,b=1.5/112378,112565,b=2/112610,112710,b=1.5/122414,122597,b=2/126289,126525,b=2/126973,127300,b=2
Язык : Russian
Default : Да
Forced : Нет
Цветовой диапазон : Limited
Коэффициенты матрицы : BT.709
Аудио #1
Идентификатор : 2
Формат : AC-3
Формат/Информация : Audio Coding 3
Расширение режима : CM (complete main)
Параметр Endianness формата : Big
Идентификатор кодека : A_AC3
Продолжительность : 1 ч. 36 м.
Вид битрейта : Постоянный
Битрейт : 640 Кбит/сек
Каналы : 6 каналов
Расположение каналов : Front: L C R, Side: L R, LFE
Частота : 48,0 КГц
Частота кадров : 31,250 кадров/сек (1536 spf)
Битовая глубина : 16 бит
Метод сжатия : С потерями
Размер потока : 443 Мбайт (7%)
Заголовок : Профессиональный (полное дублирование)
Язык : Russian
Default : Да
Forced : Нет
Аудио #2
Идентификатор : 3
Формат : DTS
Формат/Информация : Digital Theater Systems
Режим : 16
Параметр Endianness формата : Big
Идентификатор кодека : A_DTS
Продолжительность : 1 ч. 36 м.
Вид битрейта : Постоянный
Битрейт : 1509 Кбит/сек
Каналы : 6 каналов
Расположение каналов : Front: L C R, Side: L R, LFE
Частота : 48,0 КГц
Частота кадров : 93,750 кадра/сек (512 spf)
Битовая глубина : 24 бит
Метод сжатия : С потерями
Размер потока : 1,02 Гбайт (15%)
Заголовок : Авторский (одноголосый закадровый) Ю.Сербин
Язык : Russian
Default : Нет
Forced : Нет
Аудио #3
Идентификатор : 4
Формат : AC-3
Формат/Информация : Audio Coding 3
Расширение режима : CM (complete main)
Параметр Endianness формата : Big
Идентификатор кодека : A_AC3
Продолжительность : 1 ч. 36 м.
Вид битрейта : Постоянный
Битрейт : 448 Кбит/сек
Каналы : 6 каналов
Расположение каналов : Front: L C R, Side: L R, LFE
Частота : 48,0 КГц
Частота кадров : 31,250 кадров/сек (1536 spf)
Битовая глубина : 16 бит
Метод сжатия : С потерями
Размер потока : 310 Мбайт (5%)
Заголовок : Любительский (одноголосый, закадровый) Вячеслав Замез
Язык : Russian
Default : Нет
Forced : Нет
Аудио #4
Идентификатор : 5
Формат : DTS
Формат/Информация : Digital Theater Systems
Режим : 16
Параметр Endianness формата : Big
Идентификатор кодека : A_DTS
Продолжительность : 1 ч. 36 м.
Вид битрейта : Постоянный
Битрейт : 1509 Кбит/сек
Каналы : 6 каналов
Расположение каналов : Front: L C R, Side: L R, LFE
Частота : 48,0 КГц
Частота кадров : 93,750 кадра/сек (512 spf)
Битовая глубина : 24 бит
Метод сжатия : С потерями
Размер потока : 1,02 Гбайт (15%)
Заголовок : Оригинал
Язык : English
Default : Нет
Forced : Нет
Текст #1
Идентификатор : 6
Формат : UTF-8
Идентификатор кодека : S_TEXT/UTF8
Идентификатор кодека/Информация : UTF-8 Plain Text
Продолжительность : 1 ч. 29 м.
Битрейт : 84 бит/сек
Count of elements : 1320
Размер потока : 55,5 Кбайт (0%)
Заголовок : Полные, Blu-Ray
Язык : Russian
Default : Нет
Forced : Нет
Текст #2
Идентификатор : 7
Формат : UTF-8
Идентификатор кодека : S_TEXT/UTF8
Идентификатор кодека/Информация : UTF-8 Plain Text
Продолжительность : 1 ч. 26 м.
Битрейт : 100 бит/сек
Count of elements : 1181
Размер потока : 63,6 Кбайт (0%)
Заголовок : Полные, HQCLUB
Язык : Russian
Default : Нет
Forced : Нет
Текст #3
Идентификатор : 8
Формат : UTF-8
Идентификатор кодека : S_TEXT/UTF8
Идентификатор кодека/Информация : UTF-8 Plain Text
Продолжительность : 1 ч. 26 м.
Битрейт : 59 бит/сек
Count of elements : 1175
Размер потока : 37,9 Кбайт (0%)
Язык : English
Default : Нет
Forced : Нет
Текст #4
Идентификатор : 9
Формат : UTF-8
Идентификатор кодека : S_TEXT/UTF8
Идентификатор кодека/Информация : UTF-8 Plain Text
Продолжительность : 1 ч. 27 м.
Битрейт : 88 бит/сек
Count of elements : 904
Размер потока : 56,3 Кбайт (0%)
Язык : Bulgarian
Default : Нет
Forced : Нет
Текст #5
Идентификатор : 10
Формат : UTF-8
Идентификатор кодека : S_TEXT/UTF8
Идентификатор кодека/Информация : UTF-8 Plain Text
Продолжительность : 1 ч. 26 м.
Битрейт : 81 бит/сек
Count of elements : 952
Размер потока : 51,7 Кбайт (0%)
Язык : Arabic
Default : Нет
Forced : Нет
Текст #6
Идентификатор : 11
Формат : UTF-8
Идентификатор кодека : S_TEXT/UTF8
Идентификатор кодека/Информация : UTF-8 Plain Text
Продолжительность : 1 ч. 26 м.
Битрейт : 50 бит/сек
Count of elements : 1177
Размер потока : 32,0 Кбайт (0%)
Язык : Chinese
Default : Нет
Forced : Нет
Текст #7
Идентификатор : 12
Формат : UTF-8
Идентификатор кодека : S_TEXT/UTF8
Идентификатор кодека/Информация : UTF-8 Plain Text
Продолжительность : 1 ч. 26 м.
Битрейт : 53 бит/сек
Count of elements : 1027
Размер потока : 34,0 Кбайт (0%)
Язык : Czech
Default : Нет
Forced : Нет
Текст #8
Идентификатор : 13
Формат : UTF-8
Идентификатор кодека : S_TEXT/UTF8
Идентификатор кодека/Информация : UTF-8 Plain Text
Продолжительность : 1 ч. 26 м.
Битрейт : 60 бит/сек
Count of elements : 1180
Размер потока : 38,5 Кбайт (0%)
Язык : Danish
Default : Нет
Forced : Нет
Текст #9
Идентификатор : 14
Формат : UTF-8
Идентификатор кодека : S_TEXT/UTF8
Идентификатор кодека/Информация : UTF-8 Plain Text
Продолжительность : 1 ч. 26 м.
Битрейт : 54 бит/сек
Count of elements : 832
Размер потока : 34,1 Кбайт (0%)
Язык : Dutch
Default : Нет
Forced : Нет
Текст #10
Идентификатор : 15
Формат : UTF-8
Идентификатор кодека : S_TEXT/UTF8
Идентификатор кодека/Информация : UTF-8 Plain Text
Продолжительность : 1 ч. 29 м.
Битрейт : 49 бит/сек
Count of elements : 1144
Размер потока : 32,8 Кбайт (0%)
Язык : French
Default : Нет
Forced : Нет
Текст #11
Идентификатор : 16
Формат : UTF-8
Идентификатор кодека : S_TEXT/UTF8
Идентификатор кодека/Информация : UTF-8 Plain Text
Продолжительность : 1 ч. 26 м.
Битрейт : 106 бит/сек
Count of elements : 1035
Размер потока : 67,4 Кбайт (0%)
Язык : Greek
Default : Нет
Forced : Нет
Текст #12
Идентификатор : 17
Формат : UTF-8
Идентификатор кодека : S_TEXT/UTF8
Идентификатор кодека/Информация : UTF-8 Plain Text
Продолжительность : 1 ч. 26 м.
Битрейт : 54 бит/сек
Count of elements : 1182
Размер потока : 34,7 Кбайт (0%)
Язык : Polish
Default : Нет
Forced : Нет
Текст #13
Идентификатор : 18
Формат : UTF-8
Идентификатор кодека : S_TEXT/UTF8
Идентификатор кодека/Информация : UTF-8 Plain Text
Продолжительность : 1 ч. 26 м.
Битрейт : 58 бит/сек
Count of elements : 1108
Размер потока : 36,8 Кбайт (0%)
Заголовок : Бразильский португальский
Язык : Portuguese
Default : Нет
Forced : Нет
Текст #14
Идентификатор : 19
Формат : UTF-8
Идентификатор кодека : S_TEXT/UTF8
Идентификатор кодека/Информация : UTF-8 Plain Text
Продолжительность : 1 ч. 26 м.
Битрейт : 59 бит/сек
Count of elements : 1110
Размер потока : 37,6 Кбайт (0%)
Заголовок : Европейский португальский
Язык : Portuguese
Default : Нет
Forced : Нет
Текст #15
Идентификатор : 20
Формат : UTF-8
Идентификатор кодека : S_TEXT/UTF8
Идентификатор кодека/Информация : UTF-8 Plain Text
Продолжительность : 1 ч. 26 м.
Битрейт : 57 бит/сек
Count of elements : 1034
Размер потока : 36,0 Кбайт (0%)
Язык : Romanian
Default : Нет
Forced : Нет
Текст #16
Идентификатор : 21
Формат : UTF-8
Идентификатор кодека : S_TEXT/UTF8
Идентификатор кодека/Информация : UTF-8 Plain Text
Продолжительность : 1 ч. 26 м.
Битрейт : 58 бит/сек
Count of elements : 1174
Размер потока : 37,0 Кбайт (0%)
Язык : Spanish
Default : Нет
Forced : Нет
Текст #17
Идентификатор : 22
Формат : UTF-8
Идентификатор кодека : S_TEXT/UTF8
Идентификатор кодека/Информация : UTF-8 Plain Text
Продолжительность : 1 ч. 26 м.
Битрейт : 51 бит/сек
Count of elements : 742
Размер потока : 32,5 Кбайт (0%)
Язык : Swedish
Default : Нет
Forced : Нет
Текст #18
Идентификатор : 23
Формат : UTF-8
Идентификатор кодека : S_TEXT/UTF8
Идентификатор кодека/Информация : UTF-8 Plain Text
Продолжительность : 1 ч. 26 м.
Битрейт : 61 бит/сек
Count of elements : 1144
Размер потока : 38,9 Кбайт (0%)
Язык : Turkish
Default : Нет
Forced : Нет
Текст #19
Идентификатор : 24
Формат : UTF-8
Идентификатор кодека : S_TEXT/UTF8
Идентификатор кодека/Информация : UTF-8 Plain Text
Продолжительность : 1 ч. 27 м.
Битрейт : 92 бит/сек
Count of elements : 1171
Размер потока : 59,2 Кбайт (0%)
Язык : Vietnamese
Default : Нет
Forced : Нет
Меню
00:00:00.000 : :Chapter 01
00:10:52.026 : :Chapter 02
00:20:10.417 : :Chapter 03
00:30:07.138 : :Chapter 04
00:40:01.273 : :Chapter 05
00:49:57.828 : :Chapter 06
01:00:34.297 : :Chapter 07
01:09:45.180 : :Chapter 08
01:18:58.149 : :Chapter 09
01:28:04.195 : :Chapter 10
x264.exe: --crf 15.4 --preset medium --profile high --level 4.1 --ref 12 --aq-mode 2 --aq-strength 0.9 --deblock -3:-2 --merange 32 --bframes 7 --direct auto --b-adapt 2 --trellis 2 --no-fast-pskip --qpmin 10 --psy-rd 0.85:0.00 --qcomp 0.65 --partitions all --subme 11 --me umh --no-mbtree --colormatrix bt709 --sar 1:1 --zones 798,935,b=1.5/1020,1113,b=2/6926,6974,b=1.5/8274,8403,b=2/42671,42702,b=2/57861,57962,b=2/59086,59186,b=1.5/86789,86831,b=1.5/91780,91852,b=2/92366,92516,b=1.5/99970,100194,b=1.5/100971,101070,b=1.5/103334,103449,b=2/106170,106403,b=1.5/107379,107548,b=1.5/111872,111971,b=1.5/112378,112565,b=2/112610,112710,b=1.5/122414,122597,b=2/126289,126525,b=2/126973,127300,b=2 --ssim --output "D:DCFТестыLegend of the Guardians The Owls of Ga'Hoole.2010.BDRip 720p.WazZzuP.mkv" "D:Temp047.avs"
avs [info]: 1280x544p 1:1 @ 24000/1001 fps (cfr)
x264 [warning]: --ssim used with psy on: results will be invalid!
x264 [warning]: --tune ssim should be used if attempting to benchmark ssim!
x264 [info]: using SAR=1/1
x264 [info]: using cpu capabilities: MMX2 SSE2Fast SSSE3 SSE4.1 Cache64
x264 [info]: profile High, level 4.1
x264 [info]: cabac=1 ref=12 deblock=1:-3:-2 analyse=0x3:0x133 me=umh subme=11 psy=1 fade_compensate=0.00 psy_rd=0.85:0.00 mixed_ref=1 me_range=32 chroma_me=1 trellis=2 8x8dct=1 cqm=0 deadzone=21,11 fast_pskip=0 chroma_qp_offset=-2 threads=3 lookahead_threads=1 sliced_threads=0 nr=0 decimate=1 interlaced=0 bluray_compat=0 constrained_intra=0 bframes=7 b_pyramid=2 b_adapt=2 b_bias=0 direct=3 weightb=1 open_gop=0 weightp=2 keyint=250 keyint_min=23 scenecut=40 intra_refresh=0 rc=crf mbtree=0 crf=15.4000 qcomp=0.65 qpmin=10 qpmax=69 qpstep=4 ip_ratio=1.40 pb_ratio=1.30 aq=2:0.90 zones=798,935,b=1.5/1020,1113,b=2/6926,6974,b=1.5/8274,8403,b=2/42671,42702,b=2/57861,57962,b=2/59086,59186,b=1.5/86789,86831,b=1.5/91780,91852,b=2/92366,92516,b=1.5/99970,100194,b=1.5/100971,101070,b=1.5/103334,103449,b=2/106170,106403,b=1.5/107379,107548,b=1.5/111872,111971,b=1.5/112378,112565,b=2/112610,112710,b=1.5/122414,122597,b=2/126289,126525,b=2/126973,127300,b=2
x264 [info]: frame I:1030 Avg QP:13.53 size:103140
x264 [info]: frame P:40220 Avg QP:15.06 size: 48615
x264 [info]: frame B:97997 Avg QP:17.96 size: 20885
x264 [info]: consecutive B-frames: 4.9% 6.9% 11.9% 51.1% 11.5% 11.9% 1.1% 0.7%
x264 [info]: mb I I16..4: 5.2% 77.3% 17.4%
x264 [info]: mb P I16..4: 1.6% 29.6% 3.2% P16..4: 21.1% 24.1% 10.9% 2.3% 0.3% skip: 6.9%
x264 [info]: mb B I16..4: 0.4% 6.8% 0.5% B16..8: 27.9% 22.1% 4.9% direct: 8.0% skip:29.6% L0:38.5% L1:39.2% BI:22.3%
x264 [info]: 8x8 transform intra:86.7% inter:58.1%
x264 [info]: direct mvs spatial:99.9% temporal:0.1%
x264 [info]: coded y,uvDC,uvAC intra: 88.9% 86.9% 65.5% inter: 32.0% 28.7% 10.5%
x264 [info]: i16 v,h,dc,p: 9% 6% 4% 81%
x264 [info]: i8 v,h,dc,ddl,ddr,vr,hd,vl,hu: 9% 9% 9% 9% 12% 11% 12% 12% 16%
x264 [info]: i4 v,h,dc,ddl,ddr,vr,hd,vl,hu: 8% 7% 6% 8% 19% 15% 15% 10% 12%
x264 [info]: i8c dc,h,v,p: 42% 24% 16% 18%
x264 [info]: Weighted P-Frames: Y:20.5% UV:17.2%
x264 [info]: ref P L0: 51.5% 12.0% 14.9% 5.7% 3.8% 3.3% 2.4% 1.6% 1.2% 1.1% 1.0% 1.1% 0.2% 0.0%
x264 [info]: ref B L0: 84.2% 6.9% 2.9% 1.4% 1.1% 1.0% 1.2% 0.5% 0.4% 0.3% 0.2%
x264 [info]: ref B L1: 97.0% 3.0%
x264 [info]: SSIM Mean Y:0.9905356 (20.239db)
x264 [info]: kb/s:5658.96
ЦитатаКто-то писал:
Дорога с Вячеславом Замезом с раздачи zamez'а (рутрекер). За дорожку с Сербиным спасибо tymoxa (HDClub).
Релиз от:
Автор рипа: DCF



   Похожие торренты   Торрент   Размер 
В этой теме нет новых непрочитанных сообщений. Легенды ночных стражей / Legend of the Guardians: The Owls of Ga’Hoole (2010) BDRip 720p от ZHz | 60 FPS

83 | 30

6.68 ГБ

В этой теме нет новых непрочитанных сообщений. Легенды ночных стражей / Legend of the Guardians: The Owls of Ga’Hoole (2010) BDRip 720p от Leonardo and Scarabey | Лицензия

149 | 16

3.35 ГБ

В этой теме нет новых непрочитанных сообщений. Легенды ночных стражей / Legend of the Guardians: The Owls of Ga'Hoole (2010) Blu-Ray от BLUEBIRD | 3D-Video

55 | 10

37.54 ГБ

В этой теме нет новых непрочитанных сообщений. Легенды ночных стражей / Legend of the Guardians: The Owls of Ga’Hoole (2010) BDRip 1080p от Leonardo and Scarabey | Лицензия

196 | 10

5.45 ГБ

В этой теме нет новых непрочитанных сообщений. Легенды ночных стражей 2D, 3D / Legend of the Guardians: The Owls of Ga’Hoole 2D, 3D (2010) BDRemux 1080р от ExKinoRay | 3D-Video

12 | 12

36.68 ГБ

В этой теме нет новых непрочитанных сообщений. Ип Ман: Рождение легенды / The Legend Is Born: Yip Man / Yip Man chinchyun (2010) BDRip-AVC | iPhone | P1

9 | 3

1.51 ГБ

В этой теме нет новых непрочитанных сообщений. Геракл: Начало легенды / The Legend of Hercules (2014) BDRip 720p | Лицензия

440 | 37

4.87 ГБ




Вы не можете начинать темы
Вы не можете отвечать на сообщения
Вы не можете редактировать свои сообщения
Вы не можете удалять свои сообщения
Вы не можете добавлять вложения

Перейти:  
 Вход
ppkBB3cker v.2 © 2008-2014 @ PPK
[ Time : 0.082s | 15 Queries | GZIP : Off ]

cron