img image001 image001 image001 image001 image001 image001 image001 image001 image001 image001 image001 image001 image001 image001 image001

Planets Sun Sun Sun
Статистика раздачи
Автор: PriZraK | Размер: 1.31 ГБ | Добавлен: 15 фев 2017
Раздают: 0    Качают: 0
Скачать торрент
Скачать торрент
Описание торрента

СообщениеДобавлено: 15 фев 2017 

Информация о фильме
Название: Облачата
Оригинальное название: Cloudbabies
Год выпуска: 2012
Страна: Великобритания, Студия «Hoho Entertainment»
Жанр: мультфильм, детский, приключения
Продолжительность: 9 х ~ 00:10:10
Перевод: Профессиональный дублированный
Режиссёр: Бритгет Зйплеб / Britdget Appleby
Озвучивали: Isabella Carter, Xander Rundle, Barnaby Harter, Niamh Sinclair, Jimmy Hibbert, Alice Stewart, Bobby McDonald, Anthony Loewen, Joanna Ruiz, Catherine Kenneally
Описание: Кто с солнышком встаёт? Облачата!
Кто пыль с Луны смахнёт? Кто звёздам колыбельную споёт? Кто утром радугу раскрасит в чудесные цвета? Облачата!
Наш мир прекрасен, в небесах красота. Маленькие эльфы Гриша, Вася, Женя, малыш Вова, любящий кататься на ослике, поведают о своём сказочном мире.
01. Улетай домой
02. Подходящий цвет
03. Лучший Попрыгун
04. Розочка - командирша
05. Супер ослик
06. Картинка на двери
07. Загадочный звук
08. Полная луна
09. Радуга завязалась узлом

Доп. информация:
Семпл
Файл
Формат: MP4
Качество: WEB-DLRip 1080p
Видео: MPEG4-AVC, 1920x1080 (16:9), 25 fps, ~2 465 kbps avg, 0.048 bit/pixel
Аудио: 44,1 kHz, AАC-LC, 2.0, ~126 kbpsp
09. Радуга завязалась узлом. Full-HD-merci-.mp4
Format : MPEG-4
Format profile : Base Media
Codec ID : isom (isom/mp42)
File size : 189 MiB
Duration : 10 min 10 s
Overall bit rate mode : Variable
Overall bit rate : 2 596 kb/s
Encoded date : UTC 2017-02-14 08:05:39
Tagged date : UTC 2017-02-14 08:05:39
gsst : 0
gstd : 613053
Video
ID : 1
Format : AVC
Format/Info : Advanced Video Codec
Format profile : High@L4
Format settings, CABAC : Yes
Format settings, ReFrames : 2 frames
Codec ID : avc1
Codec ID/Info : Advanced Video Coding
Duration : 10 min 9 s
Source duration : 10 min 10 s
Bit rate : 2 465 kb/s
Width : 1 920 pixels
Height : 1 080 pixels
Display aspect ratio : 16:9
Frame rate mode : Constant
Frame rate : 25.000 FPS
Color space : YUV
Chroma subsampling : 4:2:0
Bit depth : 8 bits
Scan type : Progressive
Bits/(Pixel*Frame) : 0.048
Stream size : 179 MiB (95%)
Source stream size : 179 MiB (95%)
Language : English
Encoded date : UTC 2017-02-14 08:05:39
Tagged date : UTC 2017-02-14 08:05:39
Color range : Limited
Color primaries : BT.709
Transfer characteristics : BT.709
Matrix coefficients : BT.709
mdhd_Duration : 609960
Audio
ID : 2
Format : AAC
Format/Info : Advanced Audio Codec
Format profile : LC
Codec ID : 40
Duration : 10 min 10 s
Duration_FirstFrame : -5 ms
Bit rate mode : Variable
Bit rate : 126 kb/s
Channel(s) : 2 channels
Channel positions : Front: L R
Sampling rate : 44.1 kHz
Frame rate : 43.066 FPS (1024 spf)
Compression mode : Lossy
Stream size : 9.13 MiB (5%)
Language : English
Encoded date : UTC 2017-02-14 08:05:39
Tagged date : UTC 2017-02-14 08:05:39
mdhd_Duration : 610007


Релиз от:
Автор релиза: /



   Похожие торренты   Торрент   Размер 
В этой теме нет новых непрочитанных сообщений. Облачата / Cloudbabies [01-09] (2012) WEB-DLRip 1080p от ExKinoRay | D

0 | 2

1.58 ГБ

В этой теме нет новых непрочитанных сообщений. Облачата / Cloudbabies [01-11] (2012) WEB-DLRip 1080p от ExKinoRay | D

1 | 0

1.89 ГБ

В этой теме нет новых непрочитанных сообщений. Облачата / Cloudbabies [01-11] (2012) WEB-DLRip от ExKinoRay | D

0 | 0

1.29 ГБ

В этой теме нет новых непрочитанных сообщений. Облачата / Cloudbabies [01-11] (2012) WEB-DLRip от ExKinoRay | D

0 | 0

1.1 ГБ

В этой теме нет новых непрочитанных сообщений. Облачата / Cloudbabies [01-09] (2012) WEB-DLRip от ExKinoRay | D

2 | 0

917.62 МБ

В этой теме нет новых непрочитанных сообщений. Облачата / Cloudbabies [01-11] (2012) WEB-DLRip 720p от ExKinoRay | D

0 | 0

1007.14 МБ

В этой теме нет новых непрочитанных сообщений. Облачата / Cloudbabies [01-09] (2012) WEB-DLRip 720p от ExKinoRay | D

0 | 0

870.16 МБ




Вы не можете начинать темы
Вы не можете отвечать на сообщения
Вы не можете редактировать свои сообщения
Вы не можете удалять свои сообщения
Вы не можете добавлять вложения

Перейти:  
Для Мосгорсуда, Роскомнадзора и рекламодателей: mosgorsud-torrent[собачка]yandex.ru
 Вход
ppkBB3cker v.2 © 2008-2014 @ PPK
[ Time : 0.039s | 18 Queries | GZIP : Off ]

cron