img image001 image001 image001 image001 image001 image001 image001 image001 image001 image001 image001 image001 image001 image001 image001

Planets Sun Sun Sun
Статистика раздачи
Автор: PriZraK | Размер: 1.3 ГБ | Добавлен: 18 фев 2017
Раздают: 42    Качают: 3
Скачать торрент
Скачать торрент
Описание торрента

СообщениеДобавлено: 18 фев 2017 

Название: Золушка
Оригинальное название: Cinderella


Год выпуска: 1950
Страна: США
Жанр: мультфильм, приключения, семейный
Продолжительность: 01:14:28
Перевод: Дублированный
Субтитры: русские, украинские, английские


В ролях: Илен Вудс, Хелен Стэнли, Элинор Одли, Луис Ван Рутен, Верна Фелтон, Дон Барклай, Клер Дю Бри, Рода Уильямс, Джеймс МакДональд, Люсиль Блисс
Режиссёр: Клайд Джероними, Уилфред Джексон, Хэмильтон Ласки


Описание: Золушка — бедная сиротка, которую злая мачеха и ее вздорные дочки, заставляют тяжко работать с утра до ночи. Она так хочет попасть на королевский бал. На помощь бедняжке приходит Добрая фея! Силой волшебства она наделяет Золушку роскошной каретой, чудесным платьем и необыкновенными хрустальными башмачками.


Качество: BDRip 720p
Формат: MKV
Видео кодек: x265@10bit
Аудио кодек: AC3
Видео: 968x720, 23,976 fps, HEVC, ~1595 kbps, 10bit
Аудио: Rus, 48 kHz/16-bit, AC3 5.1, ~448 kbps | Дубляж
Аудио: Eng, 48 kHz/16-bit, AC3 5.1, ~448 kbps | Оригинал
Навигация по главам: Присутствует


Автор рипа: Alex_A









- H.265/HEVC (High Efficiency Video Coding) - это новый стандарт кодирования видео.
- Стандарт H.265/HEVC является логическим продолжением стандарта H.264/AVC (Advanced Video Coding), и характеризуется более эффективными алгоритмами сжатия, а также поддержкой высокого разрешения вплоть до 8K UHD (8192x4320). Первая версия стандарта H.265 была опубликована в начале 2013 года.
- Рипы в фомате HEVC поддерживается не всеми аппаратными проигрывателями.
- Для корректного воспроизведения может потребоваться обновление ПО.
- Владельцам несовместимого железа просьба не беспокоить, есть альтернативные релизы.

Общее
Уникальный идентификатор : 194038237706798345445216868798841217707 (0x91FA67BD849B728791520325F23FE2AB)
Полное имя : e:HEVCCinderella (1950)Cinderella.1950.720p_HEVCCLUB.mkv
Формат : Matroska
Версия формата : Version 4 / Version 2
Размер файла : 1,30 Гбайт
Продолжительность : 1 ч. 14 м.
Общий поток : 2494 Кбит/сек
Название фильма : Cinderella (1950) - HEVC.CLUB
Дата кодирования : UTC 2017-02-01 09:27:38
Программа кодирования : mkvmerge v9.8.0 ('Kuglblids') 64bit
Библиотека кодирования : libebml v1.3.4 + libmatroska v1.4.5
Обложка : Yes
Attachments : cover.jpg
Видео
Идентификатор : 1
Формат : HEVC
Формат/Информация : High Efficiency Video Coding
Профиль формата : Main 10@L4.1@High
Идентификатор кодека : V_MPEGH/ISO/HEVC
Продолжительность : 1 ч. 14 м.
Битрейт : 1595 Кбит/сек
Ширина : 968 пикселей
Высота : 720 пикселей
Соотношение сторон : 4:3
Режим частоты кадров : Постоянный
Частота кадров : 23,976 (24000/1001) кадра/сек
Цветовое пространство : YUV
Субдискретизация насыщенности : 4:2:0
Битовая глубина : 10 бит
Бит/(Пиксели*Кадры) : 0.095
Размер потока : 849 Мбайт (64%)
Заголовок : HEVC.CLUB
Библиотека кодирования : x265 2.2+22-20217c8af8ac:[Windows][GCC 6.2.0][64 bit] 10bit
Настройки программы : cpuid=1173503 / frame-threads=3 / numa-pools=8 / wpp / no-pmode / no-pme / no-psnr / ssim / log-level=2 / input-csp=1 / input-res=968x720 / interlace=0 / total-frames=0 / level-idc=41 / high-tier=1 / uhd-bd=0 / ref=6 / no-allow-non-conformance / repeat-headers / annexb / aud / hrd / info / hash=0 / no-temporal-layers / open-gop / min-keyint=23 / keyint=250 / bframes=8 / b-adapt=2 / b-pyramid / bframe-bias=0 / rc-lookahead=60 / lookahead-slices=1 / scenecut=40 / no-intra-refresh / ctu=64 / min-cu-size=8 / no-rect / no-amp / max-tu-size=32 / tu-inter-depth=3 / tu-intra-depth=3 / limit-tu=0 / rdoq-level=1 / signhide / no-tskip / nr-intra=0 / nr-inter=0 / no-constrained-intra / no-strong-intra-smoothing / max-merge=2 / limit-refs=3 / no-limit-modes / me=1 / subme=4 / merange=64 / temporal-mvp / weightp / weightb / no-analyze-src-pics / deblock=-3:-3 / no-sao / no-sao-non-deblock / rd=4 / no-early-skip / no-rskip / no-fast-intra / no-tskip-fast / no-cu-lossless / no-b-intra / rdpenalty=0 / psy-rd=1.70 / psy-rdoq=2.50 / no-rd-refine / analysis-mode=0 / no-lossless / cbqpoffs=0 / crqpoffs=0 / rc=crf / crf=21.0 / qcomp=0.90 / qpstep=6 / stats-write=0 / stats-read=0 / vbv-maxrate=50000 / vbv-bufsize=50000 / vbv-init=0.9 / crf-max=0.0 / crf-min=0.0 / ipratio=1.50 / pbratio=1.00 / aq-mode=1 / aq-strength=0.10 / no-cutree / zone-count=0 / no-strict-cbr / qg-size=32 / no-rc-grain / qpmax=69 / qpmin=0 / sar=1 / overscan=0 / videoformat=5 / range=0 / colorprim=2 / transfer=2 / colormatrix=1 / chromaloc=0 / display-window=0 / max-cll=0,0 / min-luma=0 / max-luma=1023 / log2-max-poc-lsb=8 / vui-timing-info / vui-hrd-info / slices=1 / opt-qp-pps / opt-ref-list-length-pps / no-multi-pass-opt-rps / scenecut-bias=0.05 / no-opt-cu-delta-qp / no-aq-motion
Default : Да
Forced : Нет
Цветовой диапазон : Limited
Коэффициенты матрицы : BT.709
Аудио #1
Идентификатор : 2
Формат : AC-3
Формат/Информация : Audio Coding 3
Расширение режима : CM (complete main)
Параметр Endianness формата : Big
Идентификатор кодека : A_AC3
Продолжительность : 1 ч. 14 м.
Вид битрейта : Постоянный
Битрейт : 448 Кбит/сек
Каналы : 6 каналов
Расположение каналов : Front: L C R, Side: L R, LFE
Частота : 48,0 КГц
Частота кадров : 31,250 кадров/сек (1536 spf)
Битовая глубина : 16 бит
Метод сжатия : С потерями
Размер потока : 239 Мбайт (18%)
Заголовок : Dub
Язык : Russian
Default : Да
Forced : Нет
Аудио #2
Идентификатор : 3
Формат : AC-3
Формат/Информация : Audio Coding 3
Расширение режима : CM (complete main)
Параметр Endianness формата : Big
Идентификатор кодека : A_AC3
Продолжительность : 1 ч. 14 м.
Вид битрейта : Постоянный
Битрейт : 448 Кбит/сек
Каналы : 6 каналов
Расположение каналов : Front: L C R, Side: L R, LFE
Частота : 48,0 КГц
Частота кадров : 31,250 кадров/сек (1536 spf)
Битовая глубина : 16 бит
Метод сжатия : С потерями
Размер потока : 239 Мбайт (18%)
Заголовок : Original
Язык : English
Default : Нет
Forced : Нет
Текст #1
Идентификатор : 4
Формат : UTF-8
Идентификатор кодека : S_TEXT/UTF8
Идентификатор кодека/Информация : UTF-8 Plain Text
Продолжительность : 1 ч. 13 м.
Битрейт : 85 бит/сек
Count of elements : 929
Размер потока : 46,2 Кбайт (0%)
Заголовок : Full
Язык : Russian
Default : Нет
Forced : Нет
Текст #2
Идентификатор : 5
Формат : UTF-8
Идентификатор кодека : S_TEXT/UTF8
Идентификатор кодека/Информация : UTF-8 Plain Text
Продолжительность : 1 ч. 14 м.
Битрейт : 83 бит/сек
Count of elements : 978
Размер потока : 45,5 Кбайт (0%)
Заголовок : Full
Язык : Ukrainian
Default : Нет
Forced : Нет
Текст #3
Идентификатор : 6
Формат : UTF-8
Идентификатор кодека : S_TEXT/UTF8
Идентификатор кодека/Информация : UTF-8 Plain Text
Продолжительность : 1 ч. 13 м.
Битрейт : 52 бит/сек
Count of elements : 975
Размер потока : 28,6 Кбайт (0%)
Заголовок : Full
Язык : English
Default : Нет
Forced : Нет
Текст #4
Идентификатор : 7
Формат : UTF-8
Идентификатор кодека : S_TEXT/UTF8
Идентификатор кодека/Информация : UTF-8 Plain Text
Продолжительность : 1 ч. 13 м.
Битрейт : 59 бит/сек
Count of elements : 1115
Размер потока : 32,5 Кбайт (0%)
Заголовок : SDH
Язык : English
Default : Нет
Forced : Нет
Меню
00:00:00.000 : ru:01. Вступительные титры
00:01:23.166 : ru:02. Давным давно...
00:04:20.719 : ru:03. Мечте я верить буду!
00:07:37.415 : ru:04. Гость - Газ
00:10:15.240 : ru:05. Его Величество Люцифер
00:13:29.142 : ru:06. Отвлекающий манёвр
00:17:39.308 : ru:07. Кушать подано
00:22:07.826 : ru:08. Домашнее задание
00:23:32.953 : ru:09. Назначить бал! Сегодня!
00:26:05.731 : ru:10. Пой, Соловушка!
00:27:55.173 : ru:11. Приглашение на бал
00:31:00.150 : ru:12. Поможем Золушке
00:33:32.510 : ru:13. Бусы для Золушки
00:36:49.040 : ru:14. Дружные портные
00:38:55.708 : ru:15. Сюрприз!
00:42:02.103 : ru:16. Фея
00:44:11.983 : ru:17. Биббиди-Боббиди-Бум!
00:48:23.109 : ru:18. Провал?
00:52:54.171 : ru:19. Вальс!
00:56:57.122 : ru:20. Отчет королю
01:00:42.472 : ru:21. Взаперти
01:04:11.097 : ru:22. Указ короля
01:07:34.801 : ru:23. Всегда есть выход!
01:13:05.715 : ru:24. Мечты сбываются





   Похожие торренты   Торрент   Размер 
В этой теме нет новых непрочитанных сообщений. Золушка / Cinderella (1950) BDRip HEVC 1080p | D

79 | 7

1.97 ГБ

В этой теме нет новых непрочитанных сообщений. Золушка / Cinderella (1950) BDRip 720p от HQ-ViDEO

676 | 24

2.3 ГБ

В этой теме нет новых непрочитанных сообщений. Золушка / Cinderella (1950) BDRip 720p от Leonardo and Scarabey | iPad

412 | 26

641.8 МБ

В этой теме нет новых непрочитанных сообщений. Золушка 2 / Cinderella II: Dreams Come True / Золушка 3 / Cinderella III (2002-2007) BDRip 720p от Leonardo and Scarabey | iPad

139 | 25

1.45 ГБ

В этой теме нет новых непрочитанных сообщений. Золушка / Cinderella (1950) HDTVRip 720p

97 | 4

2.91 ГБ

В этой теме нет новых непрочитанных сообщений. Золушка / Cinderella (1950) BDRip от MediaClub | КПК

595 | 27

339.16 МБ

В этой теме нет новых непрочитанных сообщений. Золушка / Cinderella (1950) BDRip-AVC от ExKinoRay | D, P, A1

49 | 3

3.01 ГБ




Вы не можете начинать темы
Вы не можете отвечать на сообщения
Вы не можете редактировать свои сообщения
Вы не можете удалять свои сообщения
Вы не можете добавлять вложения

Перейти:  
Для Мосгорсуда, Роскомнадзора и рекламодателей: mosgorsud-torrent[собачка]yandex.ru
 Вход
ppkBB3cker v.2 © 2008-2014 @ PPK
[ Time : 0.022s | 18 Queries | GZIP : Off ]

cron