img image001 image001 image001 image001 image001 image001 image001 image001 image001 image001 image001 image001 image001 image001 image001

Planets Sun Sun Sun

COVID-19 - Последняя информация о коронавирусе на сайте Минздрава


Статистика раздачи
Автор: PriZraK | Размер: 10.68 ГБ | Добавлен: 22 фев 2017
Раздают: 2    Качают: 2


Скачать торрент
Скачать торрент
Описание торрента

СообщениеДобавлено: 22 фев 2017 

Информация о фильме
Название: Темная Вселенная
Оригинальное название: Justice League Dark
Год выхода: 2017
Жанр: Мультфильм, фантастика, фэнтези, боевик, триллер, комикс, полнометражный
Режиссер: Джей Олива
В ролях: Розарио Доусон, Камилла Ладдингтон, Джейсон О’Мара, Альфред Молина, Джерри О`Коннелл, Джереми Дэвис, Рэй Чейз, Мэтт Райан, Ди Брэдли Бэйкер, Роджер Р. Кросс
О фильме:
Мультфильм «Темная Лига Справедливости (Justice League Dark)» очень порадует поклонников супергероев DC. Главой группы сверхъестественных героев выступает Джон Константин, в команду которого входят - Болотная тварь, Затанна, Мертвец, Демон и Черная орхидея. Все они объединяются в Темную Лигу Справедливости, чтобы взять на себя оккультные и сверхъестественные угрозы, против которых Лига Справедливости может оказаться бессильной. Сюжет многообещающий, и не зря, ведь сценаристом этого шедевра является Гильермо дель Торо.

Страна: США
Студия: Warner Bros. Animation, DC Entertainment
Продолжительность: 01:15:51
Перевод(ы):
#1: Любительский многоголосый (закадровый) | Shadow Dub
#2: Любительский многоголосый (закадровый) | Cтудия Saint-Sound.TV
Файл
Качество: BDRemux 1080p
Видео: MPEG-4 AVC, 1920x1080, 17.0 Mbit/s, 23.976 fps
Звук:
Аудио #01: 48 kHz, AC3, 2.0, 384 Kbps | Любительский многоголосый (закадровый) |
Аудио #02: 48 kHz, AC3, 2.0, 192 Kbps | Любительский многоголосый (закадровый) |
Аудио #03: 48 kHz, DTS, 5.1, 2617 kbps | Оригинал |
Субтитры: Русские, английские
General
Unique ID : 229975514317111001729971652568967700957 (0xAD03AC46722176E5BDDC4F692BCE61DD)
Complete name : G:VideoJustice.League.Dark.2017.BDREMUX.1080p.ExKinoRay.mkv
Format : Matroska
Format version : Version 4 / Version 2
File size : 10.7 GiB
Duration : 1 h 16 min
Overall bit rate mode : Variable
Overall bit rate : 20.1 Mb/s
Encoded date : UTC 2017-02-22 04:36:14
Writing application : mkvmerge v8.3.0 ('Over the Horizon') 64bit
Writing library : libebml v1.3.1 + libmatroska v1.4.2
Video
ID : 1
Format : AVC
Format/Info : Advanced Video Codec
Format profile : High@L4.1
Format settings, CABAC : Yes
Format settings, ReFrames : 4 frames
Format settings, GOP : M=1, N=12
Codec ID : V_MPEG4/ISO/AVC
Duration : 1 h 15 min
Bit rate mode : Variable
Bit rate : 17.0 Mb/s
Maximum bit rate : 30.0 Mb/s
Width : 1 920 pixels
Height : 1 080 pixels
Display aspect ratio : 16:9
Frame rate mode : Constant
Frame rate : 23.976 (24000/1001) FPS
Color space : YUV
Chroma subsampling : 4:2:0
Bit depth : 8 bits
Scan type : Progressive
Bits/(Pixel*Frame) : 0.341
Stream size : 8.98 GiB (84%)
Language : English
Default : Yes
Forced : No
Audio #1
ID : 2
Format : AC-3
Format/Info : Audio Coding 3
Mode extension : CM (complete main)
Format settings, Endianness : Big
Codec ID : A_AC3
Duration : 1 h 15 min
Bit rate mode : Constant
Bit rate : 384 kb/s
Channel(s) : 2 channels
Channel positions : Front: L R
Sampling rate : 48.0 kHz
Frame rate : 31.250 FPS (1536 spf)
Bit depth : 16 bits
Compression mode : Lossy
Stream size : 208 MiB (2%)
Title : MVO [Shadow Dub]
Language : Russian
Default : Yes
Forced : No
Audio #2
ID : 3
Format : AC-3
Format/Info : Audio Coding 3
Mode extension : CM (complete main)
Format settings, Endianness : Big
Codec ID : A_AC3
Duration : 1 h 16 min
Bit rate mode : Constant
Bit rate : 192 kb/s
Channel(s) : 2 channels
Channel positions : Front: L R
Sampling rate : 48.0 kHz
Frame rate : 31.250 FPS (1536 spf)
Bit depth : 16 bits
Compression mode : Lossy
Stream size : 104 MiB (1%)
Title : MVO [Saint-Sound.TV]
Language : Russian
Default : No
Forced : No
Audio #3
ID : 4
Format : DTS
Format/Info : Digital Theater Systems
Format profile : MA / Core
Mode : 16
Format settings, Endianness : Big
Codec ID : A_DTS
Duration : 1 h 15 min
Bit rate mode : Variable / Constant
Bit rate : 2 617 kb/s / 1 509 kb/s
Channel(s) : 6 channels
Channel positions : Front: L C R, Side: L R, LFE
Sampling rate : 48.0 kHz
Frame rate : 93.750 FPS (512 spf)
Bit depth : 24 bits
Compression mode : Lossless / Lossy
Stream size : 1.39 GiB (13%)
Title : Original
Language : English
Default : No
Forced : No
Text #1
ID : 5
Format : UTF-8
Codec ID : S_TEXT/UTF8
Codec ID/Info : UTF-8 Plain Text
Duration : 1 h 11 min
Bit rate : 84 b/s
Count of elements : 666
Stream size : 44.3 KiB (0%)
Title : Full
Language : Russian
Default : No
Forced : No
Text #2
ID : 6
Format : UTF-8
Codec ID : S_TEXT/UTF8
Codec ID/Info : UTF-8 Plain Text
Duration : 1 h 11 min
Bit rate : 49 b/s
Count of elements : 666
Stream size : 25.9 KiB (0%)
Title : Full
Language : English
Default : No
Forced : No
Menu
00:00:00.000 : :Chapter 01
00:12:59.069 : :Chapter 02
00:22:23.925 : :Chapter 03
00:33:16.953 : :Chapter 04
00:42:14.448 : :Chapter 05
00:54:19.965 : :Chapter 06
01:04:17.770 : :Chapter 07
01:12:34.141 : :Chapter 08
01:15:50.587 : :Chapter 09


Релиз от: Автор релиза:

   Похожие торренты   Торрент   Размер 
В этой теме нет новых непрочитанных сообщений. Темная Вселенная / Justice League Dark (2017) BDRip 1080р от ExKinoRay | L

21 | 0

3.81 ГБ

В этой теме нет новых непрочитанных сообщений. Темная Вселенная / Тёмная Лига Справедливости / Justice League Dark (2017) BDRemux 1080p от CasStudio | D

4 | 0

10.61 ГБ

В этой теме нет новых непрочитанных сообщений. Темная Вселенная / Justice League Dark (2017) BDRip-AVC от ExKinoRay | L

9 | 2

1.45 ГБ

В этой теме нет новых непрочитанных сообщений. Темная Вселенная / Justice League Dark (2017) BDRip 720р от ExKinoRay | L

16 | 0

2.23 ГБ

В этой теме нет новых непрочитанных сообщений. Темная Вселенная / Темная лига справедливости / Justice League Dark (2017) BDRip от rs.bandito | L

108 | 4

1.48 ГБ

В этой теме нет новых непрочитанных сообщений. Темная Вселенная / Тёмная Лига Справедливости / Justice League Dark (2017) BDRip 720р | Shadow Dub

187 | 12

2.66 ГБ

В этой теме нет новых непрочитанных сообщений. Темная Вселенная / Justice League Dark (2017) HDRip от ImperiaFilm | КПК | L

16 | 0

342.67 МБ




Вы не можете начинать темы
Вы не можете отвечать на сообщения
Вы не можете редактировать свои сообщения
Вы не можете удалять свои сообщения
Вы не можете добавлять вложения

Перейти:  
Контактная информация: rstracker[пёсик]yandex.ru
 Вход
ppkBB3cker v.2 © 2008-2014 @ PPK
[ Time : 0.018s | 16 Queries | GZIP : Off ]

cron