img image001 image001 image001 image001 image001 image001 image001 image001 image001 image001 image001 image001 image001 image001 image001

Planets Sun Sun Sun

COVID-19 - Последняя информация о коронавирусе на сайте Минздрава


Статистика раздачи
Автор: PriZraK | Размер: 1.45 ГБ | Добавлен: 22 фев 2017
Раздают: 9    Качают: 2
Скачать торрент
Скачать торрент
Описание торрента

СообщениеДобавлено: 22 фев 2017 

Информация о фильме
Название: Темная Вселенная (Тёмная Лига Справедливости)
Оригинальное название: Justice League Dark
Год выпуска: 2017
Жанр: Мультфильм, фантастика, фэнтези, боевик, триллер, комикс, полнометражный
Выпущено: США, Warner Bros. Animation, DC Entertainment
Режиссер: Джей Олива
В ролях: Розарио Доусон, Камилла Ладдингтон, Джейсон О’Мара, Альфред Молина, Джерри О`Коннелл, Джереми Дэвис, Рэй Чейз, Мэтт Райан, Ди Брэдли Бэйкер, Роджер Р. Кросс
О фильме: Мультфильм «Темная Лига Справедливости (Justice League Dark)» очень порадует поклонников супергероев DC. Главой группы сверхъестественных героев выступает Джон Константин, в команду которого входят - Болотная тварь, Затанна, Мертвец, Демон и Черная орхидея. Все они объединяются в Темную Лигу Справедливости, чтобы взять на себя оккультные и сверхъестественные угрозы, против которых Лига Справедливости может оказаться бессильной. Сюжет многообещающий, и не зря, ведь сценаристом этого шедевра является Гильермо дель Торо.

Страна: США
Студия: Warner Bros. Animation, DC Entertainment
Продолжительность: 01:15:51
Перевод(ы):
#1: Любительский многоголосый (закадровый) | Shadow Dub
#2: Любительский многоголосый (закадровый) | Cтудия Saint-Sound.TV
Файл
Качество: BDRip (AVC) [исх.Justice.League.Dark.2017.1080p.BluRay.REMUX.AVC.DTS-HD.MA.5.1-FGT]
Видео: MPEG-4 AVC, 1710 Кбит/с, 1024х576
Аудио: Русский (AC3, 2 ch, 384 Кбит/с), (AC3, 2 ch, 192 Кбит/с), английский (AC3, 6 ch, 448 Кбит/с)
Субтитры: Русские, английские
General
Unique ID : 242952534037849071238760358595541746519 (0xB6C6F4BED4524D08B2CDBCD58B864357)
Complete name : D:Justice.League.Dark.2017.2MVO.BDRip.AVC.ExKinoRay.mkv
Format : Matroska
Format version : Version 4 / Version 2
File size : 1.45 GiB
Duration : 1 h 16 min
Overall bit rate : 2 733 kb/s
Movie name : Justice League Dark 2017 from ExKinoRay
Encoded date : UTC 2017-02-22 04:19:26
Writing application : mkvmerge v7.6.0 ('Garden of Dreams') 32bit built on Feb 11 2015 00:18:47
Writing library : libebml v1.3.1 + libmatroska v1.4.2
Video
ID : 1
Format : AVC
Format/Info : Advanced Video Codec
Format profile : High@L4.1
Format settings, CABAC : Yes
Format settings, ReFrames : 12 frames
Codec ID : V_MPEG4/ISO/AVC
Duration : 1 h 15 min
Bit rate : 1 710 kb/s
Width : 1 024 pixels
Height : 576 pixels
Display aspect ratio : 16:9
Frame rate mode : Constant
Frame rate : 23.976 (24000/1001) FPS
Color space : YUV
Chroma subsampling : 4:2:0
Bit depth : 8 bits
Scan type : Progressive
Bits/(Pixel*Frame) : 0.121
Stream size : 929 MiB (62%)
Title : Enigma
Writing library : x264 core 144 r2525 40bb568
Encoding settings : cabac=1 / ref=12 / deblock=1:-2:-2 / analyse=0x3:0x113 / me=umh / subme=10 / psy=1 / psy_rd=1.05:0.10 / mixed_ref=1 / me_range=32 / chroma_me=1 / trellis=2 / 8x8dct=1 / cqm=0 / deadzone=21,11 / fast_pskip=1 / chroma_qp_offset=-3 / threads=12 / lookahead_threads=3 / sliced_threads=0 / nr=0 / decimate=1 / interlaced=0 / bluray_compat=0 / constrained_intra=0 / bframes=10 / b_pyramid=2 / b_adapt=2 / b_bias=0 / direct=3 / weightb=1 / open_gop=0 / weightp=2 / keyint=240 / keyint_min=23 / scenecut=40 / intra_refresh=0 / rc_lookahead=40 / rc=2pass / mbtree=0 / bitrate=1710 / ratetol=1.0 / qcomp=0.60 / qpmin=0 / qpmax=51 / qpstep=4 / cplxblur=20.0 / qblur=0.5 / vbv_maxrate=50000 / vbv_bufsize=62500 / nal_hrd=none / filler=0 / ip_ratio=1.40 / pb_ratio=1.30 / aq=1:1.00
Language : English
Default : Yes
Forced : No
Color range : Limited
Color primaries : BT.709
Transfer characteristics : BT.709
Matrix coefficients : BT.709
Audio #1
ID : 2
Format : AC-3
Format/Info : Audio Coding 3
Mode extension : CM (complete main)
Format settings, Endianness : Big
Codec ID : A_AC3
Duration : 1 h 15 min
Bit rate mode : Constant
Bit rate : 384 kb/s
Channel(s) : 2 channels
Channel positions : Front: L R
Sampling rate : 48.0 kHz
Frame rate : 31.250 FPS (1536 spf)
Bit depth : 16 bits
Compression mode : Lossy
Stream size : 208 MiB (14%)
Title : MVO (Shadow Dub)
Language : Russian
Default : Yes
Forced : No
Audio #2
ID : 3
Format : AC-3
Format/Info : Audio Coding 3
Mode extension : CM (complete main)
Format settings, Endianness : Big
Codec ID : A_AC3
Duration : 1 h 16 min
Bit rate mode : Constant
Bit rate : 192 kb/s
Channel(s) : 2 channels
Channel positions : Front: L R
Sampling rate : 48.0 kHz
Frame rate : 31.250 FPS (1536 spf)
Bit depth : 16 bits
Compression mode : Lossy
Stream size : 104 MiB (7%)
Title : MVO (Saint-Sound)
Language : Russian
Default : No
Forced : No
Audio #3
ID : 4
Format : AC-3
Format/Info : Audio Coding 3
Mode extension : CM (complete main)
Format settings, Endianness : Big
Codec ID : A_AC3
Duration : 1 h 15 min
Bit rate mode : Constant
Bit rate : 448 kb/s
Channel(s) : 6 channels
Channel positions : Front: L C R, Side: L R, LFE
Sampling rate : 48.0 kHz
Frame rate : 31.250 FPS (1536 spf)
Bit depth : 16 bits
Compression mode : Lossy
Stream size : 243 MiB (16%)
Language : English
Default : No
Forced : No
Text #1
ID : 5
Format : UTF-8
Codec ID : S_TEXT/UTF8
Codec ID/Info : UTF-8 Plain Text
Duration : 1 h 11 min
Bit rate : 84 b/s
Count of elements : 666
Stream size : 44.3 KiB (0%)
Language : Russian
Default : No
Forced : No
Text #2
ID : 6
Format : UTF-8
Codec ID : S_TEXT/UTF8
Codec ID/Info : UTF-8 Plain Text
Duration : 1 h 11 min
Bit rate : 49 b/s
Count of elements : 666
Stream size : 25.9 KiB (0%)
Language : English
Default : No
Forced : No
Menu
00:00:00.000 : en:Chapter 01
00:12:59.069 : en:Chapter 02
00:22:23.925 : en:Chapter 03
00:33:16.953 : en:Chapter 04
00:42:14.448 : en:Chapter 05
00:54:19.965 : en:Chapter 06
01:04:17.770 : en:Chapter 07
01:12:34.141 : en:Chapter 08



Релиз от:
Автор релиза:

   Похожие торренты   Торрент   Размер 
В этой теме нет новых непрочитанных сообщений. Темная Вселенная / Justice League Dark (2017) BDRip 720р от ExKinoRay | L

16 | 0

2.23 ГБ

В этой теме нет новых непрочитанных сообщений. Темная Вселенная / Justice League Dark (2017) BDRip 1080р от ExKinoRay | L

21 | 0

3.81 ГБ

В этой теме нет новых непрочитанных сообщений. Темная Вселенная / Justice League Dark (2017) BDRemux 1080р от ExKinoRay | L

2 | 2

10.68 ГБ

В этой теме нет новых непрочитанных сообщений. Темная Вселенная / Темная лига справедливости / Justice League Dark (2017) BDRip от rs.bandito | L

108 | 4

1.48 ГБ

В этой теме нет новых непрочитанных сообщений. Темная Вселенная / Тёмная Лига Справедливости / Justice League Dark (2017) BDRip 720р | Shadow Dub

187 | 12

2.66 ГБ

В этой теме нет новых непрочитанных сообщений. Темная Вселенная / Тёмная Лига Справедливости / Justice League Dark (2017) BDRemux 1080p от CasStudio | D

4 | 0

10.61 ГБ

В этой теме нет новых непрочитанных сообщений. Темная Вселенная / Темная лига справедливости / Justice League Dark (Джей Олива) [2017, мультфильм, ужасы, фантастика, фэнтези, боевик, BDRip-AVC] DUB(rus)+2xMVO(rus) / Marvel

3 | 2

2.11 ГБ




Вы не можете начинать темы
Вы не можете отвечать на сообщения
Вы не можете редактировать свои сообщения
Вы не можете удалять свои сообщения
Вы не можете добавлять вложения

Перейти:  
Контактная информация: rstracker[пёсик]yandex.ru
 Вход
ppkBB3cker v.2 © 2008-2014 @ PPK
[ Time : 0.031s | 16 Queries | GZIP : Off ]

cron