img image001 image001 image001 image001 image001 image001 image001 image001 image001 image001 image001 image001 image001 image001 image001

Planets Sun Sun Sun
Статистика раздачи
Автор: Nickolas3434 | Размер: 1.48 ГБ | Добавлен: 24 фев 2017
Раздают: 99    Качают: 4
Скачать торрент
Скачать торрент
Описание торрента

СообщениеДобавлено: 24 фев 2017 

Информация о фильме
Название: Темная Вселенная / Темная лига справедливости
Оригинальное название: Justice League Dark
Год выхода: 2017
Жанр: мультфильм, фантастика, фэнтези, боевик, триллер
Режиссер: Джей Олива
Продолжительность: 01:15:50
В ролях: Мэтт Райан, Камилла Ладдингтон, Джейсон О’Мара, Рэй Чейз, Энрико Колантони, Роджер Р. Кросс, Джереми Дэвис, Розарио Доусон, Брайан Т. Делани, Альфред Молина
О фильме: О команде нетипичных и не внушающих доверия супергероев, живых воплощений всех верований оккультизма. Темные маги, монстры, демоны и призраки объединятся под началом знаменитого детектива-медиума Джона Константина, чтобы потягаться со столь же могущественными силами.

Перевод:
#1 Любительский (многоголосый, закадровый) | Cтудия Saint-Sound.TV
#2 Любительский (многоголосый, закадровый) | Shadow Dub
Субтитры: русские, английские (*srt, внешние)
Файл
Формат: AVI
Качество: BDRip [by rs.bandito]
Видео: 720x400 (1.80:1), 23.976 fps, XviD build 73 ~2000 kbps avg, 0.29 bit/pixel
Аудио #1: русский: 48 kHz, AC3 Dolby Digital, 2/0 (L,R) ch, ~192 kbps | Любительский (многоголосый, закадровый) [Saint-Sound.TV] |
Аудио #2: русский: 48 kHz, AC3 Dolby Digital, 2/0 (L,R) ch, ~384 kbps | Любительский (многоголосый, закадровый) [Shadow Dub] |
Аудио #3: английский: 48 kHz, AC3 Dolby Digital, 2/0 (L,R) ch, ~192 kbps | Оригинал |
Исходник: BDRemux 1080p | Исходник предоставлен: ExKinoRay | Автор рипа: Miheleniya
Общее
Полное имя : Justice.League.Dark Justice.League.Dark.avi
Формат : AVI
Формат/Информация : Audio Video Interleave
Размер файла : 1,48 Гбайт
Продолжительность : 1 ч. 15 м.
Общий поток : 2787 Кбит/сек
Программа кодирования : VirtualDubMod 1.5.10.3 | www.virtualdub-fr.org || (build 2550/release)
Библиотека кодирования : VirtualDubMod build 2550/release
Видео
Идентификатор : 0
Формат : MPEG-4 Visual
Профиль формата : Advanced Simple@L5
Параметр BVOP формата : 1
Параметр QPel формата : Нет
Параметр GMC формата : Без точки перехода
Параметр матрицы формата : Выборочная
Идентификатор кодека : XVID
Идентификатор кодека/Подсказка : XviD
Продолжительность : 1 ч. 15 м.
Битрейт : 2000 Кбит/сек
Ширина : 720 пикс.
Высота : 400 пикс.
Соотношение сторон : 16:9
Частота кадров : 23,976 кадр/сек
Цветовое пространство : YUV
Подвыборка цветности : 4:2:0
Битовая глубина : 8 бит
Тип развёртки : Прогрессивная
Метод сжатия : С потерями
Бит/(Пиксели*Кадры) : 0.290
Размер потока : 1,06 Гбайт (72%)
Библиотека кодирования : XviD 73
Аудио #1
Идентификатор : 1
Формат : AC-3
Формат/Информация : Audio Coding 3
Расширение режима : CM (complete main)
Идентификатор кодека : 2000
Продолжительность : 1 ч. 15 м.
Вид битрейта : Постоянный
Битрейт : 192 Кбит/сек
Канал(ы) : 2 канала(ов)
Расположение каналов : Front: L R
Частота : 48,0 КГц
Битовая глубина : 16 бит
Метод сжатия : С потерями
Размер потока : 104 Мбайт (7%)
Выравнивание : Разделение по промежуткам
Продолжительность промежутка : 42 мс. (1,00 видеокадр)
Время предзагрузки промежутка : 500 ms
Заголовок : Russian (Saint-Sound.TV)
Аудио #2
Идентификатор : 2
Формат : AC-3
Формат/Информация : Audio Coding 3
Расширение режима : CM (complete main)
Идентификатор кодека : 2000
Продолжительность : 1 ч. 15 м.
Вид битрейта : Постоянный
Битрейт : 384 Кбит/сек
Канал(ы) : 2 канала(ов)
Расположение каналов : Front: L R
Частота : 48,0 КГц
Битовая глубина : 16 бит
Метод сжатия : С потерями
Размер потока : 208 Мбайт (14%)
Выравнивание : Разделение по промежуткам
Продолжительность промежутка : 42 мс. (1,00 видеокадр)
Время предзагрузки промежутка : 500 ms
Заголовок : Russian (Shadow Dub)
Аудио #3
Идентификатор : 3
Формат : AC-3
Формат/Информация : Audio Coding 3
Расширение режима : CM (complete main)
Идентификатор кодека : 2000
Продолжительность : 1 ч. 15 м.
Вид битрейта : Постоянный
Битрейт : 192 Кбит/сек
Канал(ы) : 2 канала(ов)
Расположение каналов : Front: L R
Частота : 48,0 КГц
Битовая глубина : 16 бит
Метод сжатия : С потерями
Размер потока : 104 Мбайт (7%)
Выравнивание : Разделение по промежуткам
Продолжительность промежутка : 42 мс. (1,00 видеокадр)
Время предзагрузки промежутка : 500 ms
Заголовок : English




   Похожие торренты   Торрент   Размер 
В этой теме нет новых непрочитанных сообщений. Темная Вселенная / Тёмная Лига Справедливости / Justice League Dark (2017) BDRemux 1080p от CasStudio | D

9 | 0

10.61 ГБ

В этой теме нет новых непрочитанных сообщений. Темная Вселенная / Темная лига справедливости / Justice League Dark (Джей Олива) [2017, мультфильм, ужасы, фантастика, фэнтези, боевик, BDRip-AVC] DUB(rus)+2xMVO(rus) / Marvel

2 | 2

2.11 ГБ

В этой теме нет новых непрочитанных сообщений. Темная Вселенная / Justice League Dark (2017) HDRip от ImperiaFilm | КПК | L

16 | 0

342.67 МБ

В этой теме нет новых непрочитанных сообщений. Темная Лига справедливости: Война Апоколипса / Justice League Dark: Apokolips War (2020) HDRip от Portablius | iTunes

0 | 0

744.47 МБ

В этой теме нет новых непрочитанных сообщений. Лига справедливости / Justice League (2017) BDRip-AVC от ExKinoRay | D | Лицензия

0 | 0

746.07 МБ

В этой теме нет новых непрочитанных сообщений. Лига справедливости / Justice League (2017) CAMRip | D

68 | 14

1.37 ГБ

В этой теме нет новых непрочитанных сообщений. Лига справедливости / Justice League (2017) HDTVRip | L

571 | 15

2.05 ГБ




Вы не можете начинать темы
Вы не можете отвечать на сообщения
Вы не можете редактировать свои сообщения
Вы не можете удалять свои сообщения
Вы не можете добавлять вложения

Перейти:  
Контактная информация: rstracker[пёсик]yandex.ru
 Вход
ppkBB3cker v.2 © 2008-2014 @ PPK
[ Time : 0.019s | 18 Queries | GZIP : Off ]

cron