img image001 image001 image001 image001 image001 image001 image001 image001 image001 image001 image001 image001 image001 image001 image001

Planets Sun Sun Sun
Статистика раздачи
Автор: Nickolas3434 | Размер: 1.43 ГБ | Добавлен: 28 фев 2017
Раздают: 16    Качают: 0
Скачать торрент
Скачать торрент
Описание торрента

СообщениеДобавлено: 28 фев 2017 

Альфа и Омега 4: Легенда о Зубастой Пещере / Alpha and Omega: The Legend of the Saw Toothed Cave
Страна: США
Производство: Crest Animation Productions, Lions Gate Films Home Entertainment
Год выпуска: 2014
Жанр: мультфильм, фэнтези, боевик, триллер, драма, комедия, приключения, семейный
Продолжительность: 00:45:11
Режиссер: Ричард Рич
Авторы сценария: Бен Глюк, Стив Мур
В ролях: Кейт Хиггинс, Бен Дискин, Деби Дерриберри, Линдсей Торранс, Синди Робинсон, Крис Кент, Гилберт Боус, Ларри Томас
Описание: Волкам предстоит разгадать тайну Зубастой пещеры, которая до сех пор оставалась загадкой для всех. Согласно легенде там живёт злой дух древнего волка, который теперь не доволен объединению двух стай...

Перевод: Профессиональный (полное дублирование) | SDI Media
Субтитры: английские

Качество: WEB-DL 720р
Формат: МКV
Видео кодек: AVC
Аудио кодек: АС3
Видео: 1280x718 (16:9), 23.976 fps, MPEG-4 AVC ~3 968 kbps avg
Аудио №1: 48.0 kHz, AC3 Dolby Digital, 2/0 (L,R) ch, ~192 kbps | DUB | SDI Media
Аудио №2: 48.0 kHz, AC3 Dolby Digital, 3/2 (L,C,R,l,r) + LFE ch, ~384 kbps | ENG
Формат субтитров UTF-8 Plain Text
Дата премьеры (мир): 23 сентября 2014

Релиз от: -Azureus-
General
Уникальный идентификатор : 228313096771961016921289765940165738554 (0xABC380C317ED664381EE4E13955A003A)
Полное имя : Alpha and Omega. The Legend of the Saw Toothed Cave.2014.WEB-DL 720p.mkv
Формат : Matroska
Версия формата : Version 4 / Version 2
Размер файла : 1,43 Гбайт
Продолжительность : 45 м.
Общий поток : 4546 Кбит/сек
Название фильма : Alpha and Omega: The Legend of the Saw Toothed Cave.2014.WEB-DL 720p -Azureus-
Дата кодирования : UTC 2017-02-25 08:17:22
Программа кодирования : mkvmerge v9.4.0 ('Knurl') 64bit
Библиотека кодирования : libebml v1.3.4 + libmatroska v1.4.5
Видео
Идентификатор : 1
Формат : AVC
Формат/Информация : Advanced Video Codec
Профиль формата : High@L3.1
Параметр CABAC формата : Нет
Параметр ReFrames формата : 2 кадра
Идентификатор кодека : V_MPEG4/ISO/AVC
Продолжительность : 45 м.
Битрейт : 3968 Кбит/сек
Ширина : 1280 пикселей
Высота : 718 пикселей
Соотношение сторон : 16:9
Режим частоты кадров : Постоянный
Частота кадров : 23,976 (23976/1000) кадра/сек
Цветовое пространство : YUV
Субдискретизация насыщенности : 4:2:0
Битовая глубина : 8 бит
Тип развёртки : Прогрессивная
Бит/(Пиксели*Кадры) : 0.180
Размер потока : 1,25 Гбайт (87%)
Default : Да
Forced : Нет
Цветовой диапазон : Limited
Основные цвета : BT.709
Характеристики трансфера : BT.709
Коэффициенты матрицы : BT.709
Аудио #1
Идентификатор : 2
Формат : AC-3
Формат/Информация : Audio Coding 3
Расширение режима : CM (complete main)
Параметр Endianness формата : Big
Идентификатор кодека : A_AC3
Продолжительность : 45 м.
Вид битрейта : Постоянный
Битрейт : 192 Кбит/сек
Каналы : 2 канала
Расположение каналов : Front: L R
Частота : 48,0 КГц
Частота кадров : 31,250 кадров/сек (1536 spf)
Метод сжатия : С потерями
Размер потока : 62,1 Мбайт (4%)
Заголовок : DUB - SDI Media
Язык : Russian
Default : Да
Forced : Нет
Аудио #2
Идентификатор : 3
Формат : AC-3
Формат/Информация : Audio Coding 3
Расширение режима : CM (complete main)
Параметр Endianness формата : Big
Идентификатор кодека : A_AC3
Продолжительность : 45 м.
Вид битрейта : Постоянный
Битрейт : 384 Кбит/сек
Каналы : 6 каналов
Расположение каналов : Front: L C R, Side: L R, LFE
Частота : 48,0 КГц
Частота кадров : 31,250 кадров/сек (1536 spf)
Метод сжатия : С потерями
Размер потока : 124 Мбайт (8%)
Заголовок : ENG
Язык : English
Default : Нет
Forced : Нет
Текст
Идентификатор : 4
Формат : UTF-8
Идентификатор кодека : S_TEXT/UTF8
Идентификатор кодека/Информация : UTF-8 Plain Text
Продолжительность : 40 м.
Битрейт : 91 бит/сек
Count of elements : 697
Размер потока : 26,9 Кбайт (0%)
Заголовок : Eng Sub
Язык : English
Default : Нет
Forced : Нет
Меню
00:00:00.000 : en:Chapter 1
00:06:13.000 : en:Chapter 2
00:11:11.000 : en:Chapter 3
00:17:33.000 : en:Chapter 4
00:22:36.000 : en:Chapter 5
00:31:08.000 : en:Chapter 6
00:37:07.000 : en:Chapter 7
00:41:40.000 : en:Chapter 8



   Похожие торренты   Торрент   Размер 
В этой теме нет новых непрочитанных сообщений. Альфа и Омега 4: Легенда о Зубастой Пещере / Alpha and Omega: The Legend of the Saw Toothed Cave (2014) SATRip от ExKinoRay | D

992 | 20

679.82 МБ

В этой теме нет новых непрочитанных сообщений. Альфа и Омега: Клыкастая братва / Alpha and Omega (2010) BDRip 720р от SuperMin | D

262 | 16

2.19 ГБ

В этой теме нет новых непрочитанных сообщений. Альфа и Омега 6: Пещеры динозавров / Alpha and Omega: Dino Digs (2016) WEB-DL 720р | D

209 | 5

1.57 ГБ

В этой теме нет новых непрочитанных сообщений. Альфа и Омега 3 / Alpha and Omega 3: The Great Wolf Games (2014) WEB-DLRip | L2

352 | 14

699.88 МБ

В этой теме нет новых непрочитанных сообщений. Альфа и Омега 3 / Alpha and Omega 3: The Great Wolf Games (2014) WEB-DL 720p | L2

819 | 37

1.59 ГБ

В этой теме нет новых непрочитанных сообщений. Альфа и Омега: Клыкастая братва / Alpha and Omega (2010) Blu-Ray

2 | 8

21.25 ГБ

В этой теме нет новых непрочитанных сообщений. Альфа и Омега: Клыкастая братва / Alpha and Omega (2010) HDRip-AVC

3 | 3

745.26 МБ




Вы не можете начинать темы
Вы не можете отвечать на сообщения
Вы не можете редактировать свои сообщения
Вы не можете удалять свои сообщения
Вы не можете добавлять вложения

Перейти:  
Для Мосгорсуда, Роскомнадзора и рекламодателей: mosgorsud-torrent[собачка]yandex.ru
 Вход
ppkBB3cker v.2 © 2008-2014 @ PPK
[ Time : 0.030s | 16 Queries | GZIP : Off ]

Торрент трекер RUTOR.IN, Не можете зайти на rutor.org? Какой новый адрес рутор? Какое зеркало рутор? Не работает rutor.org и зеркала? Тогда наш торрент специально для вас. Rutor.in неофициальное зеркало rutor. В случае если у Вас заблокирован rutor или вдруг Вы не можете на него зайти, то Вы без труда сможете скачать бесплатно и без рекламы последние новинки кино, игр, сериалов и прочего у нас, на Rutor.in. Не нужно использовать прокси, чтобы зайти на рутор, достаточно воспользоваться нашим ресурсом. Все новые фильмы, игры, сериалы, книги и музыка за 2013 и 2014 годы через торрент бесплатно. Скачивайте фильмы в хорошем качестве, игры для пк, xbox, playstation без регистрации. У нас вы найдете новые Зарубежные сериалы и Русские сериалы 2013, 2014, 2015 годов. Оставайтесь с нами, качайте любимые фильмы, игры, сериалы, книги и музыку.
cron