img image001 image001 image001 image001 image001 image001 image001 image001 image001 image001 image001 image001 image001 image001 image001 image001

Planets Sun Sun Sun
Статистика раздачи
Автор: Nickolas3434 | Размер: 6.33 ГБ | Добавлен: 22 мар 2017
Раздают: 19    Качают: 5
Скачать торрент
Скачать торрент
Описание торрента

СообщениеДобавлено: 22 мар 2017 

Название: Спирит: Душа прерий
Оригинальное название: Spirit: Stallion of the Cimarron
Год выпуска: 2002
Выпущено: DreamWorks Animation
Страна: США
Жанр: Анимационный, Приключения, Семейный, Вестерн
Продолжительность: 01:23:28
Перевод: Дублированный
Режиссер: Келли Эсбёри, Лорна Кук
Роли исполняли: Мэтт Дэймон, Джеймс Кромуэлл, Дэниэл Студи, Чоппер Бернет, Джеф ЛеБо, Джон Рубано, Ричард МакГонагл, Мэтт Левин, Адам Пол, Роберт Кайт
Описание: Действия происходят в 1870-х годах. В эти годы происходят кровопролитные сражения и тяжёлые переговоры между стремительно прогрессирующей количественно американской нацией и индейцами, не желающими покидать веками освоенные прерии. Вестерн — центральная ось фильма, придающая ему своеобразный окрас и ностальгию.
Родился на берегах американской реки Симаррон жеребёнок Спирит. Когда он вырос, ему выпала честь стать во главе всего табуна лошадей Симаррон. Однажды из любопытства вожак решил проверить, что за огонёк виднеется на границах его владений и что за странные звуки доносятся оттуда. Так он попал в плен к людям. Однако своей несгибаемой волей он превосходит всех, кто пытается его покорить. Однажды в форт приводят пленённого индейца племени лакота по имени Ручеёк (в некоторых переводах — Малый Ручей), такого же свободного и отчаянного, как этот мустанг. Спустя пару дней соплеменники помогают юноше сбежать, и Ручей, вскочив на дикого коня, мчится на свободу, по пути выпустив на свободу всех лошадей форта.
В индейском племени вожак табуна с Симарроном встречает любовь — кобылу Гроза (в некоторых переводах — Дождь). На деревню налетает отряд «бледнолицых», Грозу, на которой пытался сразиться с капралом бледнолицых Ручеёк, подстреливают, Спирит бросается за ней в реку, они падают с водопада, коня вновь ловят, отвозят товарным поездом за тысячи километров на восток, где он с другими должен трудиться до изнеможения. Но вновь на помощь ему приходит Ручеёк, преодолевший многие мили ради друга — он помогает мустангу сбежать и вернуться обратно в деревню. Там же жеребца уже поджидает чудом выжившая подруга. После этого молодой индеец отпускает обеих лошадей на волю — и те воссоединяются с табуном Спирита.

Format: MKV
Качество: BDRip, 1080p, h.265
Видео: 1920x820, 23,976 fps, HEVC, 2658 kbps
Аудио кодек: AC3
Audio #1: Russian, 48 kHz/16-bit, AC3 5.1, 6 ch, 448 kbps | Спирит: Душа прерий
Audio #2: Russian, 48 kHz/16-bit, AC3, 2 ch, 192 kbps | Комментарии к фильму
Audio #3: English, 48 kHz/16-bit, AC3 5.1, 6 ch, 640 kbps | Spirit: Stallion of the Cimarron
Audio #4: English, 48 kHz/16-bit, AC3, 2 ch, 192 kbps | Commentary
Audio #5: Ukrainian, 48 kHz/16-bit, AC3 5.1, 6 ch, 448 kbps | Спіріт - душа прерій
Audio #6: Finnish, 48 kHz/16-bit, AC3 5.1, 6 ch, 384 kbps | Spirit – villi ja vapaa
Audio #7: Swedish, 48 kHz/16-bit, AC3 5.1, 6 ch, 384 kbps | Spirit - Hästen från vildmarken
Audio #8: Polish, 48 kHz/16-bit, AC3 5.1, 6 ch, 640 kbps | Mustang z Dzikiej Doliny
Audio #9: Italian, 48 kHz/16-bit, AC3 5.1, 6 ch, 384 kbps | Spirit - Cavallo selvaggio
Audio #10: Greek, 48 kHz/16-bit, AC3 5.1, 6 ch, 448 kbps | Σπίριτ: Το άγριο άλογο
Audio #11: German, 48 kHz/16-bit, AC3 5.1, 6 ch, 640 kbps | Spirit – Der wilde Mustang
Audio #12: Dutch, Middle, 48 kHz/16-bit, AC3 5.1, 6 ch, 384 kbps | Spirit: Hengst Van Het Woeste Westen
Audio #13: Dutch, Flemish, 48 kHz/16-bit, AC3 5.1, 6 ch, 384 kbps | Spirit: Hengst Van Het Woeste Westen
Audio #14: French, 48 kHz/16-bit, AC3 5.1, 6 ch, 448 kbps | Spirit, l'étalon des plaines
Audio #15: Spanish, 48 kHz/16-bit, AC3 5.1, 6 ch, 448 kbps | Spirit: el corcel indomable
Audio #16: Catalan, 48 kHz/16-bit, AC3 5.1, 6 ch, 384 kbps | Spirit: el Cavall Indomable
Audio #17: Latin, 48 kHz/16-bit, AC3, 2 ch, 192 kbps | Spirit: el corcel indomable
Audio #18: Portuguese, Portugal, 48 kHz/16-bit, AC3 5.1, 6 ch, 384 kbps | Spirit - Espírito Selvagem
Audio #19: Portuguese, Brazil, 48 kHz/16-bit, AC3, 2 ch, 128 kbps | Spirit - O Corcel Indomável
Subtitles: Russian, English

Формат: MKV
Качество: DVDRip, h.265
Видео: 698x432, 50 fps, HEVC, ~800 kbps
Аудио кодек: AC3
Аудио #1: Russian, 48 kHz/16-bit, AC3, 2 ch, 192 kbps
Аудио #2: English, 48 kHz/16-bit, AC3, 2 ch, 192 kbps
Субтитры: Нет
1 Музыка к фильму / The songs of Spirit
2 Секреты анимации / Animating Spirit
3 Секреты международного дубляжа / International star talent
4 Уроки рисования с Джеймсом Бакстером / Learn to draw Spirit with James Baxter
5 Секреты раскадровки / toryboards
5.1 Крушение поезда / Train Wreck
5.2 Полковник седлает Спирита / The colonel rides Spirit
5.3 Спасение Спирита / Spirit's Capture
5.4 Спирит и Маленький Ручей перепрыгивают через каньон / Spirit and Little Creek jump the Canyon

General
Unique ID : 211758349665696096917136968456709308458 (0x9F4F2CB67C78B87983907E39A4CB802A)
Format : Matroska
Format version : Version 4 / Version 2
File size : 5.96 GiB
Duration : 1 h 23 min
Overall bit rate : 10.2 Mb/s
Movie name : Spirit Stallion of the Cimarron 2002 1080p BDrip HEVC
Encoded date : UTC 2017-03-14 17:34:24
Writing application : mkvmerge v9.8.0 ('Kuglblids') 32bit
Writing library : libebml v1.3.4 + libmatroska v1.4.5
Attachments : Spirit - Stallion of the Cimarron.jpg
Video
ID : 1
Format : HEVC
Format/Info : High Efficiency Video Coding
Format profile : Main 10@L4@Main
Codec ID : V_MPEGH/ISO/HEVC
Duration : 1 h 23 min
Bit rate : 2 658 kb/s
Width : 1 920 pixels
Height : 820 pixels
Display aspect ratio : 2.35:1
Frame rate mode : Constant
Frame rate : 23.976 (24000/1001) FPS
Color space : YUV
Chroma subsampling : 4:2:0
Bit depth : 10 bits
Bits/(Pixel*Frame) : 0.070
Stream size : 1.55 GiB (26%)
Title : Spirit Stallion of the Cimarron 2002 1080p BDrip HEVC
Writing library : x265 2.3+7-c15f8bce9f4b:[Windows][GCC 5.4.0][64 bit] 10bit
Encoding settings : cpuid=1173503 / frame-threads=9 / numa-pools=8 / wpp / no-pmode / no-pme / no-psnr / no-ssim / log-level=3 / input-csp=1 / input-res=1920x820 / interlace=0 / total-frames=0 / level-idc=0 / high-tier=1 / uhd-bd=0 / ref=5 / no-allow-non-conformance / no-repeat-headers / annexb / no-aud / no-hrd / info / hash=0 / no-temporal-layers / open-gop / min-keyint=23 / keyint=230 / bframes=8 / b-adapt=2 / b-pyramid / bframe-bias=0 / rc-lookahead=60 / lookahead-slices=5 / scenecut=40 / no-intra-refresh / ctu=64 / min-cu-size=8 / no-rect / no-amp / max-tu-size=32 / tu-inter-depth=1 / tu-intra-depth=1 / limit-tu=0 / rdoq-level=0 / dynamic-rd=0.00 / signhide / no-tskip / nr-intra=0 / nr-inter=0 / no-constrained-intra / strong-intra-smoothing / max-merge=2 / limit-refs=3 / no-limit-modes / me=3 / subme=5 / merange=92 / temporal-mvp / weightp / weightb / no-analyze-src-pics / deblock=-3:-3 / sao / no-sao-non-deblock / rd=3 / no-early-skip / rskip / no-fast-intra / no-tskip-fast / no-cu-lossless / no-b-intra / rdpenalty=0 / psy-rd=2.00 / psy-rdoq=0.00 / no-rd-refine / analysis-mode=0 / no-lossless / cbqpoffs=0 / crqpoffs=0 / rc=abr / bitrate=2658 / qcomp=0.60 / qpstep=4 / stats-write=0 / stats-read=1 / cplxblur=20.0 / qblur=0.5 / ipratio=1.40 / pbratio=1.30 / aq-mode=1 / aq-strength=1.00 / cutree / zone-count=0 / no-strict-cbr / qg-size=32 / no-rc-grain / qpmax=69 / qpmin=0 / sar=1 / overscan=0 / videoformat=5 / range=0 / colorprim=2 / transfer=2 / colormatrix=2 / chromaloc=0 / display-window=0 / max-cll=0,0 / min-luma=0 / max-luma=1023 / log2-max-poc-lsb=8 / vui-timing-info / vui-hrd-info / slices=1 / opt-qp-pps / opt-ref-list-length-pps / no-multi-pass-opt-rps / scenecut-bias=0.05 / no-opt-cu-delta-qp / no-aq-motion / no-hdr / no-hdr-opt / Capture-colorprim=3
Language : English
Default : Yes
Forced : No
Audio #1
ID : 2
Format : AC-3
Format/Info : Audio Coding 3
Mode extension : CM (complete main)
Format settings, Endianness : Big
Codec ID : A_AC3
Duration : 1 h 23 min
Bit rate mode : Constant
Bit rate : 448 kb/s
Channel(s) : 6 channels
Channel positions : Front: L C R, Side: L R, LFE
Sampling rate : 48.0 kHz
Frame rate : 31.250 FPS (1536 spf)
Bit depth : 16 bits
Compression mode : Lossy
Delay relative to video : -2 ms
Stream size : 268 MiB (4%)
Language : Russian
Default : Yes
Forced : No
Audio #2
ID : 3
Format : AC-3
Format/Info : Audio Coding 3
Mode extension : CM (complete main)
Format settings, Endianness : Big
Codec ID : A_AC3
Duration : 1 h 23 min
Bit rate mode : Constant
Bit rate : 192 kb/s
Channel(s) : 2 channels
Channel positions : Front: L R
Sampling rate : 48.0 kHz
Frame rate : 31.250 FPS (1536 spf)
Bit depth : 16 bits
Compression mode : Lossy
Delay relative to video : -2 ms
Stream size : 115 MiB (2%)
Title : Комментарии
Language : Russian
Default : No
Forced : No
Audio #3
ID : 4
Format : AC-3
Format/Info : Audio Coding 3
Mode extension : CM (complete main)
Format settings, Endianness : Big
Codec ID : A_AC3
Duration : 1 h 23 min
Bit rate mode : Constant
Bit rate : 640 kb/s
Channel(s) : 6 channels
Channel positions : Front: L C R, Side: L R, LFE
Sampling rate : 48.0 kHz
Frame rate : 31.250 FPS (1536 spf)
Bit depth : 16 bits
Compression mode : Lossy
Delay relative to video : -2 ms
Stream size : 382 MiB (6%)
Language : English
Default : No
Forced : No
Audio #4
ID : 5
Format : AC-3
Format/Info : Audio Coding 3
Mode extension : CM (complete main)
Format settings, Endianness : Big
Codec ID : A_AC3
Duration : 1 h 23 min
Bit rate mode : Constant
Bit rate : 192 kb/s
Channel(s) : 2 channels
Channel positions : Front: L R
Sampling rate : 48.0 kHz
Frame rate : 31.250 FPS (1536 spf)
Bit depth : 16 bits
Compression mode : Lossy
Delay relative to video : -2 ms
Stream size : 115 MiB (2%)
Title : Сommentary
Language : English
Default : No
Forced : No
Audio #5
ID : 6
Format : AC-3
Format/Info : Audio Coding 3
Mode extension : CM (complete main)
Format settings, Endianness : Big
Codec ID : A_AC3
Duration : 1 h 23 min
Bit rate mode : Constant
Bit rate : 448 kb/s
Channel(s) : 6 channels
Channel positions : Front: L C R, Side: L R, LFE
Sampling rate : 48.0 kHz
Frame rate : 31.250 FPS (1536 spf)
Bit depth : 16 bits
Compression mode : Lossy
Delay relative to video : -2 ms
Stream size : 268 MiB (4%)
Title : Многоголосый закадровый
Language : Ukrainian
Default : No
Forced : No
Audio #6
ID : 7
Format : AC-3
Format/Info : Audio Coding 3
Mode extension : CM (complete main)
Format settings, Endianness : Big
Codec ID : A_AC3
Duration : 1 h 23 min
Bit rate mode : Constant
Bit rate : 384 kb/s
Channel(s) : 6 channels
Channel positions : Front: L C R, Side: L R, LFE
Sampling rate : 48.0 kHz
Frame rate : 31.250 FPS (1536 spf)
Bit depth : 16 bits
Compression mode : Lossy
Delay relative to video : -2 ms
Stream size : 229 MiB (4%)
Language : Finnish
Default : No
Forced : No
Audio #7
ID : 8
Format : AC-3
Format/Info : Audio Coding 3
Mode extension : CM (complete main)
Format settings, Endianness : Big
Codec ID : A_AC3
Duration : 1 h 23 min
Bit rate mode : Constant
Bit rate : 384 kb/s
Channel(s) : 6 channels
Channel positions : Front: L C R, Side: L R, LFE
Sampling rate : 48.0 kHz
Frame rate : 31.250 FPS (1536 spf)
Bit depth : 16 bits
Compression mode : Lossy
Delay relative to video : -2 ms
Stream size : 229 MiB (4%)
Language : Swedish
Default : No
Forced : No
Audio #8
ID : 9
Format : AC-3
Format/Info : Audio Coding 3
Mode extension : CM (complete main)
Format settings, Endianness : Big
Codec ID : A_AC3
Duration : 1 h 23 min
Bit rate mode : Constant
Bit rate : 640 kb/s
Channel(s) : 6 channels
Channel positions : Front: L C R, Side: L R, LFE
Sampling rate : 48.0 kHz
Frame rate : 31.250 FPS (1536 spf)
Bit depth : 16 bits
Compression mode : Lossy
Delay relative to video : 1 s 998 ms
Stream size : 382 MiB (6%)
Language : Polish
Default : No
Forced : No
Audio #9
ID : 10
Format : AC-3
Format/Info : Audio Coding 3
Mode extension : CM (complete main)
Format settings, Endianness : Big
Codec ID : A_AC3
Duration : 1 h 23 min
Bit rate mode : Constant
Bit rate : 384 kb/s
Channel(s) : 6 channels
Channel positions : Front: L C R, Side: L R, LFE
Sampling rate : 48.0 kHz
Frame rate : 31.250 FPS (1536 spf)
Bit depth : 16 bits
Compression mode : Lossy
Delay relative to video : -2 ms
Stream size : 229 MiB (4%)
Language : Italian
Default : No
Forced : No
Audio #10
ID : 11
Format : AC-3
Format/Info : Audio Coding 3
Mode extension : CM (complete main)
Format settings, Endianness : Big
Codec ID : A_AC3
Duration : 1 h 23 min
Bit rate mode : Constant
Bit rate : 448 kb/s
Channel(s) : 6 channels
Channel positions : Front: L C R, Side: L R, LFE
Sampling rate : 48.0 kHz
Frame rate : 31.250 FPS (1536 spf)
Bit depth : 16 bits
Compression mode : Lossy
Delay relative to video : -2 ms
Stream size : 268 MiB (4%)
Language : Greek
Default : No
Forced : No
Audio #11
ID : 12
Format : AC-3
Format/Info : Audio Coding 3
Mode extension : CM (complete main)
Format settings, Endianness : Big
Codec ID : A_AC3
Duration : 1 h 23 min
Bit rate mode : Constant
Bit rate : 640 kb/s
Channel(s) : 6 channels
Channel positions : Front: L C R, Side: L R, LFE
Sampling rate : 48.0 kHz
Frame rate : 31.250 FPS (1536 spf)
Bit depth : 16 bits
Compression mode : Lossy
Delay relative to video : -2 ms
Stream size : 382 MiB (6%)
Language : German
Default : No
Forced : No
Audio #12
ID : 13
Format : AC-3
Format/Info : Audio Coding 3
Mode extension : CM (complete main)
Format settings, Endianness : Big
Codec ID : A_AC3
Duration : 1 h 23 min
Bit rate mode : Constant
Bit rate : 384 kb/s
Channel(s) : 6 channels
Channel positions : Front: L C R, Side: L R, LFE
Sampling rate : 48.0 kHz
Frame rate : 31.250 FPS (1536 spf)
Bit depth : 16 bits
Compression mode : Lossy
Delay relative to video : -2 ms
Stream size : 229 MiB (4%)
Language : dum
Default : No
Forced : No
Audio #13
ID : 14
Format : AC-3
Format/Info : Audio Coding 3
Mode extension : CM (complete main)
Format settings, Endianness : Big
Codec ID : A_AC3
Duration : 1 h 23 min
Bit rate mode : Constant
Bit rate : 384 kb/s
Channel(s) : 6 channels
Channel positions : Front: L C R, Side: L R, LFE
Sampling rate : 48.0 kHz
Frame rate : 31.250 FPS (1536 spf)
Bit depth : 16 bits
Compression mode : Lossy
Delay relative to video : -2 ms
Stream size : 229 MiB (4%)
Language : Dutch
Default : No
Forced : No
Audio #14
ID : 15
Format : AC-3
Format/Info : Audio Coding 3
Mode extension : CM (complete main)
Format settings, Endianness : Big
Codec ID : A_AC3
Duration : 1 h 23 min
Bit rate mode : Constant
Bit rate : 448 kb/s
Channel(s) : 6 channels
Channel positions : Front: L C R, Side: L R, LFE
Sampling rate : 48.0 kHz
Frame rate : 31.250 FPS (1536 spf)
Bit depth : 16 bits
Compression mode : Lossy
Delay relative to video : 35 ms
Stream size : 268 MiB (4%)
Language : French
Default : No
Forced : No
Audio #15
ID : 16
Format : AC-3
Format/Info : Audio Coding 3
Mode extension : CM (complete main)
Format settings, Endianness : Big
Codec ID : A_AC3
Duration : 1 h 23 min
Bit rate mode : Constant
Bit rate : 448 kb/s
Channel(s) : 6 channels
Channel positions : Front: L C R, Side: L R, LFE
Sampling rate : 48.0 kHz
Frame rate : 31.250 FPS (1536 spf)
Bit depth : 16 bits
Compression mode : Lossy
Delay relative to video : -2 ms
Stream size : 268 MiB (4%)
Language : Spanish
Default : No
Forced : No
Audio #16
ID : 17
Format : AC-3
Format/Info : Audio Coding 3
Mode extension : CM (complete main)
Format settings, Endianness : Big
Codec ID : A_AC3
Duration : 1 h 23 min
Bit rate mode : Constant
Bit rate : 384 kb/s
Channel(s) : 6 channels
Channel positions : Front: L C R, Side: L R, LFE
Sampling rate : 48.0 kHz
Frame rate : 31.250 FPS (1536 spf)
Bit depth : 16 bits
Compression mode : Lossy
Delay relative to video : -2 ms
Stream size : 229 MiB (4%)
Language : Catalan
Default : No
Forced : No
Audio #17
ID : 18
Format : AC-3
Format/Info : Audio Coding 3
Format profile : Dolby Digital
Mode extension : CM (complete main)
Format settings, Endianness : Big
Codec ID : A_AC3
Duration : 1 h 23 min
Bit rate mode : Constant
Bit rate : 192 kb/s
Channel(s) : 2 channels
Channel positions : Front: L R
Sampling rate : 48.0 kHz
Frame rate : 31.250 FPS (1536 spf)
Bit depth : 16 bits
Compression mode : Lossy
Delay relative to video : 1 s 998 ms
Stream size : 115 MiB (2%)
Language : Latin
Default : No
Forced : No
Audio #18
ID : 19
Format : AC-3
Format/Info : Audio Coding 3
Mode extension : CM (complete main)
Format settings, Endianness : Big
Codec ID : A_AC3
Duration : 1 h 23 min
Bit rate mode : Constant
Bit rate : 384 kb/s
Channel(s) : 6 channels
Channel positions : Front: L C R, Side: L R, LFE
Sampling rate : 48.0 kHz
Frame rate : 31.250 FPS (1536 spf)
Bit depth : 16 bits
Compression mode : Lossy
Delay relative to video : -2 ms
Stream size : 229 MiB (4%)
Title : Portugal
Language : Portuguese
Default : No
Forced : No
Audio #19
ID : 20
Format : AC-3
Format/Info : Audio Coding 3
Mode extension : CM (complete main)
Format settings, Endianness : Big
Codec ID : A_AC3
Duration : 1 h 23 min
Bit rate mode : Constant
Bit rate : 128 kb/s
Channel(s) : 2 channels
Channel positions : Front: L R
Sampling rate : 48.0 kHz
Frame rate : 31.250 FPS (1536 spf)
Bit depth : 16 bits
Compression mode : Lossy
Delay relative to video : 2 s 998 ms
Stream size : 76.4 MiB (1%)
Title : Brazil
Language : Portuguese
Default : No
Forced : No
Text #1
ID : 21
Format : UTF-8
Codec ID : S_TEXT/UTF8
Codec ID/Info : UTF-8 Plain Text
Duration : 1 h 15 min
Bit rate : 37 b/s
Count of elements : 413
Stream size : 20.8 KiB (0%)
Language : Russian
Default : No
Forced : No
Text #2
ID : 22
Format : UTF-8
Codec ID : S_TEXT/UTF8
Codec ID/Info : UTF-8 Plain Text
Duration : 1 h 23 min
Bit rate : 46 b/s
Count of elements : 1389
Stream size : 28.5 KiB (0%)
Language : English
Default : No
Forced : No
Menu
00:00:00.000 : en:Young Spirit
00:07:32.410 : en:Leader of His Herd
00:11:29.856 : en:The Journey Begins
00:18:15.011 : en:Spirit Meets Man
00:20:40.281 : en:A Strange New Place
00:23:22.359 : en:You Can't Break Me
00:25:35.492 : en:This One Seemed Different
00:30:11.184 : en:The Great Escape
00:35:24.831 : en:Indian Camp
00:38:47.951 : en:Rain's World
00:42:06.149 : en:Torn Two Ways
00:43:52.547 : en:"Go Home"
00:48:10.638 : en:The Cavalry Attacks
00:53:29.289 : en:Remember Who You Are
00:57:18.810 : en:Master Plan
01:00:49.437 : en:Breaking Free
01:04:26.863 : en:Leap of Faith
01:11:14.562 : en:Farewell My Friend
01:14:07.234 : en:The Return
01:16:12.109 : en:End Credits



   Похожие торренты   Торрент   Размер 
В этой теме нет новых непрочитанных сообщений. Спирит: Душа прерий + Дополнительные материалы / Spirit: Stallion of the Cimarron (2002) BDRip 1080p HEVC | D, P

1 | 2

9.26 ГБ

В этой теме нет новых непрочитанных сообщений. Спирит: Душа прерий / Spirit: Stallion of the Cimarron (2002) BDrip 1080p | P

75 | 9

21.07 ГБ

В этой теме нет новых непрочитанных сообщений. Спирит: Душа прерий / Spirit: Stallion of the Cimarron 2002 1080p BDRip-AVC | 60 fps | D, P

138 | 23

8.34 ГБ

В этой теме нет новых непрочитанных сообщений. Спирит: Душа прерий / Spirit: Stallion of the Cimarron (2002) BDRip 1080p от MediaClub | D, P

326 | 62

4.11 ГБ

В этой теме нет новых непрочитанных сообщений. Спирит: Душа прерий / Spirit: Stallion of the Cimarron (2002) BDRemux 1080p от MediaClub | D, P

21 | 19

24.43 ГБ

В этой теме нет новых непрочитанных сообщений. Спирит: Душа прерий / Spirit: Stallion of the Cimarron (2002) BDRip 720p

1452 | 51

2.35 ГБ

В этой теме нет новых непрочитанных сообщений. Спирит: Душа прерий / Spirit: Stallion of the Cimarron (2002) BDRip-AVC от MediaClub | D, P

248 | 44

1.95 ГБ




Вы не можете начинать темы
Вы не можете отвечать на сообщения
Вы не можете редактировать свои сообщения
Вы не можете удалять свои сообщения
Вы не можете добавлять вложения

Перейти:  
 Вход
ppkBB3cker v.2 © 2008-2014 @ PPK
[ Time : 0.023s | 18 Queries | GZIP : Off ]

cron